  0
SECTION
  2
HEADER
  9
$ACADVER
  1
AC1018
  9
$ACADMAINTVER
 70
     0
  9
$DWGCODEPAGE
  3
ANSI_1252
  9
$INSBASE
 10
0.0
 20
0.0
 30
0.0
  9
$EXTMIN
 10
-240.1492749318579
 20
-1.45510982973286
 30
0.0
  9
$EXTMAX
 10
56.85072506814015
 20
208.5448901702673
 30
0.0
  9
$LIMMIN
 10
0.0
 20
0.0
  9
$LIMMAX
 10
12.0
 20
9.0
  9
$ORTHOMODE
 70
     0
  9
$REGENMODE
 70
     1
  9
$FILLMODE
 70
     1
  9
$QTEXTMODE
 70
     0
  9
$MIRRTEXT
 70
     1
  9
$LTSCALE
 40
1.0
  9
$ATTMODE
 70
     1
  9
$TEXTSIZE
 40
0.2
  9
$TRACEWID
 40
0.05
  9
$TEXTSTYLE
  7
Standard
  9
$CLAYER
  8
0
  9
$CELTYPE
  6
ByLayer
  9
$CECOLOR
 62
   256
  9
$CELTSCALE
 40
1.0
  9
$DISPSILH
 70
     0
  9
$DIMSCALE
 40
1.0
  9
$DIMASZ
 40
0.18
  9
$DIMEXO
 40
0.0625
  9
$DIMDLI
 40
0.38
  9
$DIMRND
 40
0.0
  9
$DIMDLE
 40
0.0
  9
$DIMEXE
 40
0.18
  9
$DIMTP
 40
0.0
  9
$DIMTM
 40
0.0
  9
$DIMTXT
 40
0.18
  9
$DIMCEN
 40
0.09
  9
$DIMTSZ
 40
0.0
  9
$DIMTOL
 70
     0
  9
$DIMLIM
 70
     0
  9
$DIMTIH
 70
     1
  9
$DIMTOH
 70
     1
  9
$DIMSE1
 70
     0
  9
$DIMSE2
 70
     0
  9
$DIMTAD
 70
     0
  9
$DIMZIN
 70
     0
  9
$DIMBLK
  1

  9
$DIMASO
 70
     1
  9
$DIMSHO
 70
     1
  9
$DIMPOST
  1

  9
$DIMAPOST
  1

  9
$DIMALT
 70
     0
  9
$DIMALTD
 70
     2
  9
$DIMALTF
 40
25.4
  9
$DIMLFAC
 40
1.0
  9
$DIMTOFL
 70
     0
  9
$DIMTVP
 40
0.0
  9
$DIMTIX
 70
     0
  9
$DIMSOXD
 70
     0
  9
$DIMSAH
 70
     0
  9
$DIMBLK1
  1

  9
$DIMBLK2
  1

  9
$DIMSTYLE
  2
Standard
  9
$DIMCLRD
 70
     0
  9
$DIMCLRE
 70
     0
  9
$DIMCLRT
 70
     0
  9
$DIMTFAC
 40
1.0
  9
$DIMGAP
 40
0.09
  9
$DIMJUST
 70
     0
  9
$DIMSD1
 70
     0
  9
$DIMSD2
 70
     0
  9
$DIMTOLJ
 70
     1
  9
$DIMTZIN
 70
     0
  9
$DIMALTZ
 70
     0
  9
$DIMALTTZ
 70
     0
  9
$DIMUPT
 70
     0
  9
$DIMDEC
 70
     4
  9
$DIMTDEC
 70
     4
  9
$DIMALTU
 70
     2
  9
$DIMALTTD
 70
     2
  9
$DIMTXSTY
  7
Standard
  9
$DIMAUNIT
 70
     0
  9
$DIMADEC
 70
     0
  9
$DIMALTRND
 40
0.0
  9
$DIMAZIN
 70
     0
  9
$DIMDSEP
 70
    46
  9
$DIMATFIT
 70
     3
  9
$DIMFRAC
 70
     0
  9
$DIMLDRBLK
  1

  9
$DIMLUNIT
 70
     2
  9
$DIMLWD
 70
    -2
  9
$DIMLWE
 70
    -2
  9
$DIMTMOVE
 70
     0
  9
$LUNITS
 70
     2
  9
$LUPREC
 70
     4
  9
$SKETCHINC
 40
0.1
  9
$FILLETRAD
 40
0.5
  9
$AUNITS
 70
     0
  9
$AUPREC
 70
     0
  9
$MENU
  1
.
  9
$ELEVATION
 40
0.0
  9
$PELEVATION
 40
0.0
  9
$THICKNESS
 40
0.0
  9
$LIMCHECK
 70
     0
  9
$CHAMFERA
 40
0.5
  9
$CHAMFERB
 40
0.5
  9
$CHAMFERC
 40
1.0
  9
$CHAMFERD
 40
0.0
  9
$SKPOLY
 70
     0
  9
$TDCREATE
 40
2458138.220035521
  9
$TDUCREATE
 40
2458138.178368854
  9
$TDUPDATE
 40
2458138.220035891
  9
$TDUUPDATE
 40
2458138.178369225
  9
$TDINDWG
 40
0.0000000116
  9
$TDUSRTIMER
 40
0.0000000116
  9
$USRTIMER
 70
     1
  9
$ANGBASE
 50
0.0
  9
$ANGDIR
 70
     0
  9
$PDMODE
 70
     0
  9
$PDSIZE
 40
0.0
  9
$PLINEWID
 40
0.0
  9
$SPLFRAME
 70
     0
  9
$SPLINETYPE
 70
     6
  9
$SPLINESEGS
 70
     8
  9
$HANDSEED
  5
28E
  9
$SURFTAB1
 70
     6
  9
$SURFTAB2
 70
     6
  9
$SURFTYPE
 70
     6
  9
$SURFU
 70
     6
  9
$SURFV
 70
     6
  9
$UCSBASE
  2

  9
$UCSNAME
  2

  9
$UCSORG
 10
0.0
 20
0.0
 30
0.0
  9
$UCSXDIR
 10
1.0
 20
0.0
 30
0.0
  9
$UCSYDIR
 10
0.0
 20
1.0
 30
0.0
  9
$UCSORTHOREF
  2

  9
$UCSORTHOVIEW
 70
     0
  9
$UCSORGTOP
 10
0.0
 20
0.0
 30
0.0
  9
$UCSORGBOTTOM
 10
0.0
 20
0.0
 30
0.0
  9
$UCSORGLEFT
 10
0.0
 20
0.0
 30
0.0
  9
$UCSORGRIGHT
 10
0.0
 20
0.0
 30
0.0
  9
$UCSORGFRONT
 10
0.0
 20
0.0
 30
0.0
  9
$UCSORGBACK
 10
0.0
 20
0.0
 30
0.0
  9
$PUCSBASE
  2

  9
$PUCSNAME
  2

  9
$PUCSORG
 10
0.0
 20
0.0
 30
0.0
  9
$PUCSXDIR
 10
1.0
 20
0.0
 30
0.0
  9
$PUCSYDIR
 10
0.0
 20
1.0
 30
0.0
  9
$PUCSORTHOREF
  2

  9
$PUCSORTHOVIEW
 70
     0
  9
$PUCSORGTOP
 10
0.0
 20
0.0
 30
0.0
  9
$PUCSORGBOTTOM
 10
0.0
 20
0.0
 30
0.0
  9
$PUCSORGLEFT
 10
0.0
 20
0.0
 30
0.0
  9
$PUCSORGRIGHT
 10
0.0
 20
0.0
 30
0.0
  9
$PUCSORGFRONT
 10
0.0
 20
0.0
 30
0.0
  9
$PUCSORGBACK
 10
0.0
 20
0.0
 30
0.0
  9
$USERI1
 70
     0
  9
$USERI2
 70
     0
  9
$USERI3
 70
     0
  9
$USERI4
 70
     0
  9
$USERI5
 70
     0
  9
$USERR1
 40
18.1
  9
$USERR2
 40
0.0
  9
$USERR3
 40
0.0
  9
$USERR4
 40
0.0
  9
$USERR5
 40
0.0
  9
$WORLDVIEW
 70
     1
  9
$SHADEDGE
 70
     3
  9
$SHADEDIF
 70
    70
  9
$TILEMODE
 70
     1
  9
$MAXACTVP
 70
    64
  9
$PINSBASE
 10
0.0
 20
0.0
 30
0.0
  9
$PLIMCHECK
 70
     0
  9
$PEXTMIN
 10
1.00000000000000E+20
 20
1.00000000000000E+20
 30
1.00000000000000E+20
  9
$PEXTMAX
 10
-1.00000000000000E+20
 20
-1.00000000000000E+20
 30
-1.00000000000000E+20
  9
$PLIMMIN
 10
0.0
 20
0.0
  9
$PLIMMAX
 10
12.0
 20
9.0
  9
$UNITMODE
 70
     0
  9
$VISRETAIN
 70
     1
  9
$PLINEGEN
 70
     0
  9
$PSLTSCALE
 70
     1
  9
$TREEDEPTH
 70
  3020
  9
$CMLSTYLE
  2
Standard
  9
$CMLJUST
 70
     0
  9
$CMLSCALE
 40
1.0
  9
$PROXYGRAPHICS
 70
     1
  9
$MEASUREMENT
 70
     1
  9
$CELWEIGHT
370
    -1
  9
$ENDCAPS
280
     0
  9
$JOINSTYLE
280
     0
  9
$LWDISPLAY
290
     0
  9
$INSUNITS
 70
     4
  9
$HYPERLINKBASE
  1

  9
$STYLESHEET
  1

  9
$XEDIT
290
     1
  9
$CEPSNTYPE
380
     0
  9
$PSTYLEMODE
290
     1
  9
$FINGERPRINTGUID
  2
{A1BA40C9-90B5-434D-BA01-0C0CD7FCC55C}
  9
$VERSIONGUID
  2
{FAEB1C32-E019-11D5-929B-00C0DF256EC4}
  9
$EXTNAMES
290
     1
  9
$PSVPSCALE
 40
0.0
  9
$OLESTARTUP
290
     0
  9
$SORTENTS
280
   127
  9
$INDEXCTL
280
     0
  9
$HIDETEXT
280
     1
  9
$XCLIPFRAME
290
     0
  9
$HALOGAP
280
     0
  9
$OBSCOLOR
 70
   257
  9
$OBSLTYPE
280
     0
  9
$INTERSECTIONDISPLAY
280
     0
  9
$INTERSECTIONCOLOR
 70
   257
  9
$DIMASSOC
280
     2
  9
$PROJECTNAME
  1

  0
ENDSEC
  0
SECTION
  2
CLASSES
  0
CLASS
  1
ACDBDICTIONARYWDFLT
  2
AcDbDictionaryWithDefault
  3
ObjectDBX Classes
 90
        0
 91
        4
280
     0
281
     0
  0
CLASS
  1
VISUALSTYLE
  2
AcDbVisualStyle
  3
ObjectDBX Classes
 90
     4095
 91
        4
280
     0
281
     0
  0
CLASS
  1
MATERIAL
  2
AcDbMaterial
  3
ObjectDBX Classes
 90
     1153
 91
        4
280
     0
281
     0
  0
ENDSEC
  0
SECTION
  2
TABLES
  0
TABLE
  2
VPORT
  5
8
330
0
100
AcDbSymbolTable
 70
     1
  0
VPORT
  5
29
330
8
100
AcDbSymbolTableRecord
100
AcDbViewportTableRecord
  2
*Active
 70
     0
 10
0.0
 20
0.0
 11
1.0
 21
1.0
 12
-91.64927493185887
 22
103.5448901702672
 13
0.0
 23
0.0
 14
0.5
 24
0.5
 15
0.5
 25
0.5
 16
0.0
 26
0.0
 36
1.0
 17
0.0
 27
0.0
 37
0.0
 40
231.0000000000002
 41
1.60267857142857
 42
50.0
 43
0.0
 44
0.0
 50
0.0
 51
0.0
 71
     0
 72
   100
 73
     1
 74
     3
 75
     0
 76
     0
 77
     0
 78
     0
281
     0
 65
     1
110
0.0
120
0.0
130
0.0
111
1.0
121
0.0
131
0.0
112
0.0
122
1.0
132
0.0
 79
     0
146
0.0
  0
ENDTAB
  0
TABLE
  2
LTYPE
  5
5
330
0
100
AcDbSymbolTable
 70
     8
  0
LTYPE
  5
14
330
5
100
AcDbSymbolTableRecord
100
AcDbLinetypeTableRecord
  2
ByBlock
 70
     0
  3

 72
    65
 73
     0
 40
0.0
  0
LTYPE
  5
15
330
5
100
AcDbSymbolTableRecord
100
AcDbLinetypeTableRecord
  2
ByLayer
 70
     0
  3

 72
    65
 73
     0
 40
0.0
  0
LTYPE
  5
16
330
5
100
AcDbSymbolTableRecord
100
AcDbLinetypeTableRecord
  2
Continuous
 70
     0
  3
Solid line
 72
    65
 73
     0
 40
0.0
  0
LTYPE
  5
3F
330
5
100
AcDbSymbolTableRecord
100
AcDbLinetypeTableRecord
  2
DASHED
 70
     0
  3
Dashed
 72
    65
 73
     2
 40
15.0
 49
7.0
 74
     0
 49
-8.0
 74
     0
  0
LTYPE
  5
40
330
5
100
AcDbSymbolTableRecord
100
AcDbLinetypeTableRecord
  2
DOTTED
 70
     0
  3
Dotted
 72
    65
 73
     2
 40
1.0
 49
0.0
 74
     0
 49
-1.0
 74
     0
  0
LTYPE
  5
41
330
5
100
AcDbSymbolTableRecord
100
AcDbLinetypeTableRecord
  2
DOT_CENTER
 70
     0
  3
Dot_Center
 72
    65
 73
     4
 40
14.0
 49
12.0
 74
     0
 49
-1.0
 74
     0
 49
0.0
 74
     0
 49
-1.0
 74
     0
  0
LTYPE
  5
42
330
5
100
AcDbSymbolTableRecord
100
AcDbLinetypeTableRecord
  2
LONG_DASHED
 70
     0
  3
Long_Dashed
 72
    65
 73
     2
 40
15.0
 49
10.0
 74
     0
 49
-5.0
 74
     0
  0
LTYPE
  5
43
330
5
100
AcDbSymbolTableRecord
100
AcDbLinetypeTableRecord
  2
DASH_CENTER
 70
     0
  3
Dash_Center
 72
    65
 73
     4
 40
14.0
 49
11.0
 74
     0
 49
-1.0
 74
     0
 49
1.0
 74
     0
 49
-1.0
 74
     0
  0
LTYPE
  5
44
330
5
100
AcDbSymbolTableRecord
100
AcDbLinetypeTableRecord
  2
PHANTOM
 70
     0
  3
Phantom
 72
    65
 73
     6
 40
13.0
 49
10.0
 74
     0
 49
-1.0
 74
     0
 49
0.0
 74
     0
 49
-1.0
 74
     0
 49
0.0
 74
     0
 49
-1.0
 74
     0
  0
LTYPE
  5
45
330
5
100
AcDbSymbolTableRecord
100
AcDbLinetypeTableRecord
  2
CENTER_DASH_DASH
 70
     0
  3
Center_Dash_Dash
 72
    65
 73
     6
 40
14.0
 49
9.0
 74
     0
 49
-1.0
 74
     0
 49
1.0
 74
     0
 49
-1.0
 74
     0
 49
1.0
 74
     0
 49
-1.0
 74
     0
  0
ENDTAB
  0
TABLE
  2
LAYER
  5
2
330
0
100
AcDbSymbolTable
 70
     2
  0
LAYER
  5
10
330
2
100
AcDbSymbolTableRecord
100
AcDbLayerTableRecord
  2
0
 70
     0
 62
     7
  6
Continuous
370
    -3
390
F
  0
LAYER
  5
46
330
2
100
AcDbSymbolTableRecord
100
AcDbLayerTableRecord
  2
1
 70
     0
 62
     7
  6
Continuous
370
    -3
390
F
  0
ENDTAB
  0
TABLE
  2
STYLE
  5
3
330
0
100
AcDbSymbolTable
 70
     5
  0
STYLE
  5
11
330
3
100
AcDbSymbolTableRecord
100
AcDbTextStyleTableRecord
  2
Standard
 70
     0
 40
0.0
 41
1.0
 50
0.0
 71
     0
 42
0.2
  3
txt
  4

  0
STYLE
  5
17D
330
3
100
AcDbSymbolTableRecord
100
AcDbTextStyleTableRecord
  2
CONVERTER_11
 70
     0
 40
0.0
 41
0.9
 50
0.0
 71
     0
 42
0.2
  3
txt.shx
  4

  0
STYLE
  5
184
330
3
100
AcDbSymbolTableRecord
100
AcDbTextStyleTableRecord
  2
CONVERTER_12
 70
     0
 40
0.0
 41
0.81
 50
0.0
 71
     0
 42
0.2
  3
txt.shx
  4

  0
STYLE
  5
19A
330
3
100
AcDbSymbolTableRecord
100
AcDbTextStyleTableRecord
  2
CONVERTER_13
 70
     0
 40
0.0
 41
0.72
 50
0.0
 71
     0
 42
0.2
  3
txt.shx
  4

  0
STYLE
  5
19D
330
3
100
AcDbSymbolTableRecord
100
AcDbTextStyleTableRecord
  2
CONVERTER_14
 70
     0
 40
0.0
 41
0.855
 50
0.0
 71
     0
 42
0.2
  3
txt.shx
  4

  0
ENDTAB
  0
TABLE
  2
VIEW
  5
6
330
0
100
AcDbSymbolTable
 70
     0
  0
ENDTAB
  0
TABLE
  2
UCS
  5
7
330
0
100
AcDbSymbolTable
 70
     0
  0
ENDTAB
  0
TABLE
  2
APPID
  5
9
330
0
100
AcDbSymbolTable
 70
     1
  0
APPID
  5
12
330
9
100
AcDbSymbolTableRecord
100
AcDbRegAppTableRecord
  2
ACAD
 70
     0
  0
ENDTAB
  0
TABLE
  2
DIMSTYLE
  5
A
330
0
100
AcDbSymbolTable
 70
     4
100
AcDbDimStyleTable
  0
DIMSTYLE
105
27
330
A
100
AcDbSymbolTableRecord
100
AcDbDimStyleTableRecord
  2
Standard
 70
     0
178
     0
340
11
  0
DIMSTYLE
105
1FF
102
{ACAD_REACTORS
330
200
102
}
330
A
100
AcDbSymbolTableRecord
100
AcDbDimStyleTableRecord
  2
ME10_DIM_10
 70
     0
 41
3.5
 42
0.0
 44
2.0
 73
     0
 74
     0
 77
     1
 78
     8
140
3.5
147
2.0
172
     1
173
     1
174
     1
175
     1
176
     2
177
     2
178
     3
340
17D
  0
DIMSTYLE
105
259
102
{ACAD_REACTORS
330
25A
102
}
330
A
100
AcDbSymbolTableRecord
100
AcDbDimStyleTableRecord
  2
ME10_DIM_11
 70
     0
 41
3.5
 42
0.0
 44
2.0
 73
     0
 74
     0
 77
     1
 78
     8
140
3.5
147
2.0
172
     1
173
     1
174
     1
175
     1
176
     2
177
     2
178
     3
340
17D
  0
DIMSTYLE
105
264
102
{ACAD_REACTORS
330
265
102
}
330
A
100
AcDbSymbolTableRecord
100
AcDbDimStyleTableRecord
  2
ME10_DIM_12
 70
     0
 41
3.5
 42
0.0
 44
2.0
 73
     0
 74
     0
 77
     1
 78
     8
140
3.5
147
2.0
172
     1
173
     1
174
     1
175
     1
176
     2
177
     2
178
     3
340
17D
  0
ENDTAB
  0
TABLE
  2
BLOCK_RECORD
  5
1
330
0
100
AcDbSymbolTable
 70
    20
  0
BLOCK_RECORD
  5
1F
330
1
100
AcDbSymbolTableRecord
100
AcDbBlockTableRecord
  2
*Model_Space
340
22
  0
BLOCK_RECORD
  5
1B
330
1
100
AcDbSymbolTableRecord
100
AcDbBlockTableRecord
  2
*Paper_Space
340
1E
  0
BLOCK_RECORD
  5
23
330
1
100
AcDbSymbolTableRecord
100
AcDbBlockTableRecord
  2
*Paper_Space0
340
26
  0
BLOCK_RECORD
  5
47
330
1
100
AcDbSymbolTableRecord
100
AcDbBlockTableRecord
  2
_rahmen
340
0
102
{BLKREFS
331
4E
102
}
  0
BLOCK_RECORD
  5
4A
330
1
100
AcDbSymbolTableRecord
100
AcDbBlockTableRecord
  2
_punkt
340
0
102
{BLKREFS
331
4F
102
}
  0
BLOCK_RECORD
  5
4D
330
1
100
AcDbSymbolTableRecord
100
AcDbBlockTableRecord
  2
A4I_CS
340
0
102
{BLKREFS
331
7D
102
}
  0
BLOCK_RECORD
  5
52
330
1
100
AcDbSymbolTableRecord
100
AcDbBlockTableRecord
  2
D_UT_2_5_4_TWIN-select__1
340
0
102
{BLKREFS
331
56
102
}
  0
BLOCK_RECORD
  5
55
330
1
100
AcDbSymbolTableRecord
100
AcDbBlockTableRecord
  2
AllgSicht1
340
0
102
{BLKREFS
331
7E
102
}
  0
BLOCK_RECORD
  5
59
330
1
100
AcDbSymbolTableRecord
100
AcDbBlockTableRecord
  2
D_UT_2_5_4_TWIN-select__2
340
0
102
{BLKREFS
331
5D
102
}
  0
BLOCK_RECORD
  5
5C
330
1
100
AcDbSymbolTableRecord
100
AcDbBlockTableRecord
  2
Drfsicht1
340
0
102
{BLKREFS
331
7F
102
}
  0
BLOCK_RECORD
  5
60
330
1
100
AcDbSymbolTableRecord
100
AcDbBlockTableRecord
  2
D_UT_2_5_4_TWIN-select__3
340
0
102
{BLKREFS
331
64
102
}
  0
BLOCK_RECORD
  5
63
330
1
100
AcDbSymbolTableRecord
100
AcDbBlockTableRecord
  2
Rckans1
340
0
102
{BLKREFS
331
80
102
}
  0
BLOCK_RECORD
  5
67
330
1
100
AcDbSymbolTableRecord
100
AcDbBlockTableRecord
  2
D_UT_2_5_4_TWIN-select__4
340
0
102
{BLKREFS
331
6B
102
}
  0
BLOCK_RECORD
  5
6A
330
1
100
AcDbSymbolTableRecord
100
AcDbBlockTableRecord
  2
SA_Links1
340
0
102
{BLKREFS
331
81
102
}
  0
BLOCK_RECORD
  5
6E
330
1
100
AcDbSymbolTableRecord
100
AcDbBlockTableRecord
  2
D_UT_2_5_4_TWIN-select__5
340
0
102
{BLKREFS
331
72
102
}
  0
BLOCK_RECORD
  5
71
330
1
100
AcDbSymbolTableRecord
100
AcDbBlockTableRecord
  2
SA_Rechts1
340
0
102
{BLKREFS
331
82
102
}
  0
BLOCK_RECORD
  5
75
330
1
100
AcDbSymbolTableRecord
100
AcDbBlockTableRecord
  2
D_UT_2_5_4_TWIN-select__6
340
0
102
{BLKREFS
331
79
102
}
  0
BLOCK_RECORD
  5
78
330
1
100
AcDbSymbolTableRecord
100
AcDbBlockTableRecord
  2
Vordans1
340
0
102
{BLKREFS
331
83
102
}
  0
BLOCK_RECORD
  5
7C
330
1
100
AcDbSymbolTableRecord
100
AcDbBlockTableRecord
  2
1
340
0
102
{BLKREFS
331
86
102
}
  0
BLOCK_RECORD
  5
1F4
330
1
100
AcDbSymbolTableRecord
100
AcDbBlockTableRecord
  2
*D17
340
0
  0
BLOCK_RECORD
  5
250
330
1
100
AcDbSymbolTableRecord
100
AcDbBlockTableRecord
  2
*D18
340
0
  0
BLOCK_RECORD
  5
25B
330
1
100
AcDbSymbolTableRecord
100
AcDbBlockTableRecord
  2
*D19
340
0
  0
ENDTAB
  0
ENDSEC
  0
SECTION
  2
BLOCKS
  0
BLOCK
  5
20
330
1F
100
AcDbEntity
  8
0
100
AcDbBlockBegin
  2
*Model_Space
 70
     0
 10
0.0
 20
0.0
 30
0.0
  3
*Model_Space
  1

  0
ENDBLK
  5
21
330
1F
100
AcDbEntity
  8
0
100
AcDbBlockEnd
  0
BLOCK
  5
1C
330
1B
100
AcDbEntity
 67
     1
  8
0
100
AcDbBlockBegin
  2
*Paper_Space
 70
     0
 10
0.0
 20
0.0
 30
0.0
  3
*Paper_Space
  1

  0
ENDBLK
  5
1D
330
1B
100
AcDbEntity
 67
     1
  8
0
100
AcDbBlockEnd
  0
BLOCK
  5
24
330
23
100
AcDbEntity
  8
0
100
AcDbBlockBegin
  2
*Paper_Space0
 70
     0
 10
0.0
 20
0.0
 30
0.0
  3
*Paper_Space0
  1

  0
ENDBLK
  5
25
330
23
100
AcDbEntity
  8
0
100
AcDbBlockEnd
  0
BLOCK
  5
48
330
47
100
AcDbEntity
  8
0
100
AcDbBlockBegin
  2
_rahmen
 70
     0
 10
51.85072506814116
 20
-1.45510982973286
 30
0.0
  3
_rahmen
  1

  0
LINE
  5
87
330
47
100
AcDbEntity
  8
1
  6
Continuous
 62
     6
100
AcDbLine
 10
-77.69407945860885
 20
29.04489017026725
 30
0.0
 11
51.85072506814285
 21
29.04489017026725
 31
0.0
  0
LINE
  5
88
330
47
100
AcDbEntity
  8
1
  6
Continuous
 62
     7
100
AcDbLine
 10
-59.49407945860884
 20
7.79489017026725
 30
0.0
 11
-41.29407945860893
 21
7.79489017026725
 31
0.0
  0
LINE
  5
89
330
47
100
AcDbEntity
  8
1
  6
Continuous
 62
     6
100
AcDbLine
 10
-59.49407945860884
 20
3.54489017026725
 30
0.0
 11
-77.69407945860885
 21
3.54489017026714
 31
0.0
  0
LINE
  5
8A
330
47
100
AcDbEntity
  8
1
  6
Continuous
 62
     7
100
AcDbLine
 10
-59.49407945860884
 20
7.79489017026725
 30
0.0
 11
-59.49407945860884
 21
3.54489017026725
 31
0.0
  0
LINE
  5
8B
330
47
100
AcDbEntity
  8
1
  6
Continuous
 62
     7
100
AcDbLine
 10
-41.29407945860893
 20
7.79489017026725
 30
0.0
 11
-41.29407945860893
 21
3.54489017026714
 31
0.0
  0
LINE
  5
8C
330
47
100
AcDbEntity
  8
1
  6
Continuous
 62
     7
100
AcDbLine
 10
-77.69407945860885
 20
7.79489017026714
 30
0.0
 11
-77.69407945860885
 21
3.54489017026714
 31
0.0
  0
LINE
  5
8D
330
47
100
AcDbEntity
  8
1
  6
Continuous
 62
     7
100
AcDbLine
 10
-77.69407945860885
 20
7.79489017026714
 30
0.0
 11
-59.49407945860884
 21
7.79489017026725
 31
0.0
  0
LINE
  5
8E
330
47
100
AcDbEntity
  8
1
  6
Continuous
 62
     2
100
AcDbLine
 10
-68.45742457204625
 20
27.16989017026717
 30
0.0
 11
-68.45742457204625
 21
22.16989017026717
 31
0.0
  0
LINE
  5
8F
330
47
100
AcDbEntity
  8
1
  6
Continuous
 62
     2
100
AcDbLine
 10
-68.45742457204625
 20
22.16989017026717
 30
0.0
 11
-73.45742457204625
 21
23.41989017026717
 31
0.0
  0
LINE
  5
90
330
47
100
AcDbEntity
  8
1
  6
Continuous
 62
     2
100
AcDbLine
 10
-73.45742457204625
 20
23.41989017026717
 30
0.0
 11
-73.45742457204625
 21
25.91989017026717
 31
0.0
  0
LINE
  5
91
330
47
100
AcDbEntity
  8
1
  6
Continuous
 62
     2
100
AcDbLine
 10
-73.45742457204625
 20
25.91989017026717
 30
0.0
 11
-68.45742457204625
 21
27.16989017026717
 31
0.0
  0
LINE
  5
92
330
47
100
AcDbEntity
  8
1
  6
Continuous
 62
     6
100
AcDbLine
 10
-200.1492749318571
 20
3.54489017026725
 30
0.0
 11
-235.149274931857
 21
3.54489017026725
 31
0.0
  0
LINE
  5
93
330
47
100
AcDbEntity
  8
1
  6
Continuous
 62
     6
100
AcDbLine
 10
51.85072506814285
 20
20.54489017026725
 30
0.0
 11
51.85072506814245
 21
12.04489017026725
 31
0.0
  0
LINE
  5
94
330
47
100
AcDbEntity
  8
1
  6
Continuous
 62
     6
100
AcDbLine
 10
-41.29407945860893
 20
3.54489017026714
 30
0.0
 11
-41.64927493185886
 21
3.54489017026725
 31
0.0
  0
LINE
  5
95
330
47
100
AcDbEntity
  8
1
  6
Continuous
 62
     6
100
AcDbLine
 10
-193.9492749318591
 20
3.54489017026714
 30
0.0
 11
-200.1492749318571
 21
3.54489017026725
 31
0.0
  0
LINE
  5
96
330
47
100
AcDbEntity
  8
1
  6
Continuous
 62
     7
100
AcDbLine
 10
-41.29407945860893
 20
20.54489017026725
 30
0.0
 11
-41.29407945860893
 21
7.79489017026725
 31
0.0
  0
LINE
  5
97
330
47
100
AcDbEntity
  8
1
  6
Continuous
 62
     7
100
AcDbLine
 10
-77.69407945860885
 20
20.54489017026725
 30
0.0
 11
-77.69407945860885
 21
7.79489017026714
 31
0.0
  0
LINE
  5
98
330
47
100
AcDbEntity
  8
1
  6
Continuous
 62
     6
100
AcDbLine
 10
-91.64927493185883
 20
3.54489017026725
 30
0.0
 11
-141.6492749318591
 21
3.54489017026725
 31
0.0
  0
LINE
  5
99
330
47
100
AcDbEntity
  8
1
  6
Continuous
 62
     6
100
AcDbLine
 10
-193.9492749318591
 20
3.54489017026714
 30
0.0
 11
-191.6492749318588
 21
3.54489017026725
 31
0.0
  0
LINE
  5
9A
330
47
100
AcDbEntity
  8
1
  6
Continuous
 62
     6
100
AcDbLine
 10
-41.29407945860893
 20
3.54489017026714
 30
0.0
 11
8.35072506814114
 21
3.54489017026725
 31
0.0
  0
LINE
  5
9B
330
47
100
AcDbEntity
  8
1
  6
Continuous
 62
     6
100
AcDbLine
 10
51.85072506814116
 20
3.54489017026725
 30
0.0
 11
51.85072506814245
 21
12.04489017026725
 31
0.0
  0
LINE
  5
9C
330
47
100
AcDbEntity
  8
1
  6
Continuous
 62
     2
100
AcDbLine
 10
-240.1492749318579
 20
3.54489017026725
 30
0.0
 11
-240.1492749318579
 21
-1.45510982973286
 31
0.0
  0
LINE
  5
9D
330
47
100
AcDbEntity
  8
1
  6
Continuous
 62
     2
100
AcDbLine
 10
-235.149274931857
 20
3.54489017026725
 30
0.0
 11
-240.1492749318579
 21
3.54489017026725
 31
0.0
  0
LINE
  5
9E
330
47
100
AcDbEntity
  8
1
  6
Continuous
 62
     2
100
AcDbLine
 10
-235.149274931857
 20
-1.45510982973286
 30
0.0
 11
-191.6492749318588
 21
-1.45510982973286
 31
0.0
  0
LINE
  5
9F
330
47
100
AcDbEntity
  8
1
  6
Continuous
 62
     2
100
AcDbLine
 10
-235.149274931857
 20
3.54489017026725
 30
0.0
 11
-235.149274931857
 21
-1.45510982973286
 31
0.0
  0
LINE
  5
A0
330
47
100
AcDbEntity
  8
1
  6
Continuous
 62
     2
100
AcDbLine
 10
8.35072506814114
 20
-1.45510982973286
 30
0.0
 11
-41.64927493185886
 21
-1.45510982973286
 31
0.0
  0
LINE
  5
A1
330
47
100
AcDbEntity
  8
1
  6
Continuous
 62
     2
100
AcDbLine
 10
8.35072506814114
 20
-1.45510982973286
 30
0.0
 11
8.35072506814114
 21
3.54489017026725
 31
0.0
  0
LINE
  5
A2
330
47
100
AcDbEntity
  8
1
  6
Continuous
 62
     2
100
AcDbLine
 10
-41.64927493185886
 20
-1.45510982973286
 30
0.0
 11
-41.64927493185886
 21
3.54489017026725
 31
0.0
  0
LINE
  5
A3
330
47
100
AcDbEntity
  8
1
  6
Continuous
 62
     2
100
AcDbLine
 10
-91.64927493185883
 20
-1.45510982973286
 30
0.0
 11
-41.64927493185886
 21
-1.45510982973286
 31
0.0
  0
LINE
  5
A4
330
47
100
AcDbEntity
  8
1
  6
Continuous
 62
     2
100
AcDbLine
 10
-91.64927493185883
 20
-1.45510982973286
 30
0.0
 11
-91.64927493185883
 21
3.54489017026725
 31
0.0
  0
LINE
  5
A5
330
47
100
AcDbEntity
  8
1
  6
Continuous
 62
     2
100
AcDbLine
 10
-141.6492749318591
 20
-1.45510982973286
 30
0.0
 11
-91.64927493185883
 21
-1.45510982973286
 31
0.0
  0
LINE
  5
A6
330
47
100
AcDbEntity
  8
1
  6
Continuous
 62
     2
100
AcDbLine
 10
-141.6492749318591
 20
-1.45510982973286
 30
0.0
 11
-141.6492749318591
 21
3.54489017026725
 31
0.0
  0
LINE
  5
A7
330
47
100
AcDbEntity
  8
1
  6
Continuous
 62
     2
100
AcDbLine
 10
-191.6492749318588
 20
-1.45510982973286
 30
0.0
 11
-141.6492749318591
 21
-1.45510982973286
 31
0.0
  0
LINE
  5
A8
330
47
100
AcDbEntity
  8
1
  6
Continuous
 62
     2
100
AcDbLine
 10
-191.6492749318588
 20
-1.45510982973286
 30
0.0
 11
-191.6492749318588
 21
3.54489017026725
 31
0.0
  0
LINE
  5
A9
330
47
100
AcDbEntity
  8
1
  6
Continuous
 62
     6
100
AcDbLine
 10
-235.1492749318571
 20
53.54489017026737
 30
0.0
 11
-235.149274931857
 21
3.54489017026725
 31
0.0
  0
LINE
  5
AA
330
47
100
AcDbEntity
  8
1
  6
Continuous
 62
     2
100
AcDbLine
 10
-240.1492749318579
 20
53.54489017026737
 30
0.0
 11
-240.1492749318579
 21
3.54489017026725
 31
0.0
  0
LINE
  5
AB
330
47
100
AcDbEntity
  8
1
  6
Continuous
 62
     2
100
AcDbLine
 10
-240.1492749318579
 20
53.54489017026737
 30
0.0
 11
-235.1492749318571
 21
53.54489017026737
 31
0.0
  0
LINE
  5
AC
330
47
100
AcDbEntity
  8
1
  6
Continuous
 62
     6
100
AcDbLine
 10
-235.1492749318574
 20
103.5448901702672
 30
0.0
 11
-235.1492749318571
 21
53.54489017026737
 31
0.0
  0
LINE
  5
AD
330
47
100
AcDbEntity
  8
1
  6
Continuous
 62
     2
100
AcDbLine
 10
-240.1492749318579
 20
103.5448901702672
 30
0.0
 11
-240.1492749318579
 21
53.54489017026737
 31
0.0
  0
LINE
  5
AE
330
47
100
AcDbEntity
  8
1
  6
Continuous
 62
     2
100
AcDbLine
 10
-240.1492749318579
 20
103.5448901702672
 30
0.0
 11
-235.1492749318574
 21
103.5448901702672
 31
0.0
  0
LINE
  5
AF
330
47
100
AcDbEntity
  8
1
  6
Continuous
 62
     6
100
AcDbLine
 10
-235.1492749318579
 20
153.5448901702673
 30
0.0
 11
-235.1492749318574
 21
103.5448901702672
 31
0.0
  0
LINE
  5
B0
330
47
100
AcDbEntity
  8
1
  6
Continuous
 62
     2
100
AcDbLine
 10
-240.1492749318579
 20
153.5448901702673
 30
0.0
 11
-240.1492749318579
 21
103.5448901702672
 31
0.0
  0
LINE
  5
B1
330
47
100
AcDbEntity
  8
1
  6
Continuous
 62
     2
100
AcDbLine
 10
-240.1492749318579
 20
153.5448901702673
 30
0.0
 11
-235.1492749318579
 21
153.5448901702673
 31
0.0
  0
LINE
  5
B2
330
47
100
AcDbEntity
  8
1
  6
Continuous
 62
     6
100
AcDbLine
 10
-235.1492749318579
 20
188.5448901702673
 30
0.0
 11
-235.1492749318579
 21
153.5448901702673
 31
0.0
  0
LINE
  5
B3
330
47
100
AcDbEntity
  8
1
  6
Continuous
 62
     2
100
AcDbLine
 10
-240.1492749318579
 20
208.5448901702673
 30
0.0
 11
-240.1492749318579
 21
153.5448901702673
 31
0.0
  0
LINE
  5
B4
330
47
100
AcDbEntity
  8
1
  6
Continuous
 62
     2
100
AcDbLine
 10
-240.1492749318579
 20
-1.45510982973286
 30
0.0
 11
-235.149274931857
 21
-1.45510982973286
 31
0.0
  0
LINE
  5
B5
330
47
100
AcDbEntity
  8
1
  6
Continuous
 62
     2
100
AcDbLine
 10
-91.64927493185883
 20
208.5448901702673
 30
0.0
 11
-91.64927493185883
 21
199.3361983255659
 31
0.0
  0
LINE
  5
B6
330
47
100
AcDbEntity
  8
1
  6
Continuous
 62
     2
100
AcDbLine
 10
-91.64927493185883
 20
208.5448901702673
 30
0.0
 11
-240.1492749318579
 21
208.5448901702673
 31
0.0
  0
LINE
  5
B7
330
47
100
AcDbEntity
  8
1
  6
Continuous
 62
     2
100
AcDbLine
 10
56.85072506814015
 20
3.54489017026725
 30
0.0
 11
56.85072506814015
 21
53.54489017026737
 31
0.0
  0
LINE
  5
B8
330
47
100
AcDbEntity
  8
1
  6
Continuous
 62
     2
100
AcDbLine
 10
56.85072506814015
 20
153.5448901702673
 30
0.0
 11
56.85072506814015
 21
208.5448901702673
 31
0.0
  0
LINE
  5
B9
330
47
100
AcDbEntity
  8
1
  6
Continuous
 62
     6
100
AcDbLine
 10
51.85072506814035
 20
153.5448901702673
 30
0.0
 11
51.85072506814015
 21
188.5448901702673
 31
0.0
  0
LINE
  5
BA
330
47
100
AcDbEntity
  8
1
  6
Continuous
 62
     2
100
AcDbLine
 10
51.85072506814035
 20
153.5448901702673
 30
0.0
 11
56.85072506814015
 21
153.5448901702673
 31
0.0
  0
LINE
  5
BB
330
47
100
AcDbEntity
  8
1
  6
Continuous
 62
     2
100
AcDbLine
 10
56.85072506814015
 20
103.5448901702672
 30
0.0
 11
56.85072506814015
 21
153.5448901702673
 31
0.0
  0
LINE
  5
BC
330
47
100
AcDbEntity
  8
1
  6
Continuous
 62
     6
100
AcDbLine
 10
51.85072506814156
 20
103.5448901702672
 30
0.0
 11
51.85072506814035
 21
153.5448901702673
 31
0.0
  0
LINE
  5
BD
330
47
100
AcDbEntity
  8
1
  6
Continuous
 62
     2
100
AcDbLine
 10
51.85072506814156
 20
103.5448901702672
 30
0.0
 11
56.85072506814015
 21
103.5448901702672
 31
0.0
  0
LINE
  5
BE
330
47
100
AcDbEntity
  8
1
  6
Continuous
 62
     2
100
AcDbLine
 10
56.85072506814015
 20
53.54489017026737
 30
0.0
 11
56.85072506814015
 21
103.5448901702672
 31
0.0
  0
LINE
  5
BF
330
47
100
AcDbEntity
  8
1
  6
Continuous
 62
     6
100
AcDbLine
 10
51.85072506814205
 20
53.54489017026737
 30
0.0
 11
51.85072506814156
 21
103.5448901702672
 31
0.0
  0
LINE
  5
C0
330
47
100
AcDbEntity
  8
1
  6
Continuous
 62
     2
100
AcDbLine
 10
51.85072506814205
 20
53.54489017026737
 30
0.0
 11
56.85072506814015
 21
53.54489017026737
 31
0.0
  0
LINE
  5
C1
330
47
100
AcDbEntity
  8
1
  6
Continuous
 62
     6
100
AcDbLine
 10
51.85072506814015
 20
188.5448901702673
 30
0.0
 11
-235.1492749318579
 21
188.5448901702673
 31
0.0
  0
LINE
  5
C2
330
47
100
AcDbEntity
  8
1
  6
Continuous
 62
     2
100
AcDbLine
 10
56.85072506814015
 20
208.5448901702673
 30
0.0
 11
-91.64927493185883
 21
208.5448901702673
 31
0.0
  0
LINE
  5
C3
330
47
100
AcDbEntity
  8
1
  6
Continuous
 62
     6
100
AcDbLine
 10
51.85072506814285
 20
20.54489017026725
 30
0.0
 11
51.85072506814205
 21
53.54489017026737
 31
0.0
  0
LINE
  5
C4
330
47
100
AcDbEntity
  8
1
  6
Continuous
 62
     2
100
AcDbLine
 10
51.85072506814116
 20
-1.45510982973286
 30
0.0
 11
8.35072506814114
 21
-1.45510982973286
 31
0.0
  0
LINE
  5
C5
330
47
100
AcDbEntity
  8
1
  6
Continuous
 62
     2
100
AcDbLine
 10
56.85072506814015
 20
-1.45510982973286
 30
0.0
 11
51.85072506814116
 21
-1.45510982973286
 31
0.0
  0
LINE
  5
C6
330
47
100
AcDbEntity
  8
1
  6
Continuous
 62
     2
100
AcDbLine
 10
56.85072506814015
 20
-1.45510982973286
 30
0.0
 11
56.85072506814015
 21
3.54489017026725
 31
0.0
  0
LINE
  5
C7
330
47
100
AcDbEntity
  8
1
  6
Continuous
 62
     6
100
AcDbLine
 10
-77.69407945860885
 20
20.54489017026725
 30
0.0
 11
-41.29407945860893
 21
20.54489017026725
 31
0.0
  0
LINE
  5
C8
330
47
100
AcDbEntity
  8
1
  6
Continuous
 62
     2
100
AcDbLine
 10
51.85072506814116
 20
3.54489017026725
 30
0.0
 11
51.85072506814116
 21
-1.45510982973286
 31
0.0
  0
LINE
  5
C9
330
47
100
AcDbEntity
  8
1
  6
Continuous
 62
     2
100
AcDbLine
 10
51.85072506814116
 20
3.54489017026725
 30
0.0
 11
56.85072506814015
 21
3.54489017026725
 31
0.0
  0
LINE
  5
CA
330
47
100
AcDbEntity
  8
1
  6
Continuous
 62
     6
100
AcDbLine
 10
-41.64927493185886
 20
3.54489017026725
 30
0.0
 11
-59.49407945860884
 21
3.54489017026725
 31
0.0
  0
LINE
  5
CB
330
47
100
AcDbEntity
  8
1
  6
Continuous
 62
     6
100
AcDbLine
 10
8.35072506814114
 20
3.54489017026725
 30
0.0
 11
51.85072506814116
 21
3.54489017026725
 31
0.0
  0
LINE
  5
CC
330
47
100
AcDbEntity
  8
1
  6
Continuous
 62
     6
100
AcDbLine
 10
-141.6492749318591
 20
3.54489017026725
 30
0.0
 11
-146.6940794586088
 21
3.54489017026725
 31
0.0
  0
LINE
  5
CD
330
47
100
AcDbEntity
  8
1
  6
Continuous
 62
     6
100
AcDbLine
 10
-91.64927493185883
 20
3.54489017026725
 30
0.0
 11
-77.69407945860885
 21
3.54489017026714
 31
0.0
  0
LINE
  5
CE
102
{ACAD_REACTORS
330
1B9
330
1BA
102
}
330
47
100
AcDbEntity
  8
0
  6
Continuous
 62
     2
100
AcDbLine
 10
-70.17945351646205
 20
15.61740492647937
 30
0.0
 11
-70.17945351646205
 21
16.22294021498615
 31
0.0
  0
LINE
  5
CF
102
{ACAD_REACTORS
330
1B9
330
1BA
102
}
330
47
100
AcDbEntity
  8
0
  6
Continuous
 62
     2
100
AcDbLine
 10
-70.17945351646205
 20
12.81727031984806
 30
0.0
 11
-70.17945351646205
 21
13.39912172654314
 31
0.0
  0
LINE
  5
D0
102
{ACAD_REACTORS
330
1BB
330
1BC
102
}
330
47
100
AcDbEntity
  8
0
  6
Continuous
 62
     2
100
AcDbLine
 10
-47.54996708098284
 20
13.10693438797105
 30
0.0
 11
-47.54996708098284
 21
10.83839017028356
 31
0.0
  0
LINE
  5
D1
102
{ACAD_REACTORS
330
1BB
330
1BC
102
}
330
47
100
AcDbEntity
  8
0
  6
Continuous
 62
     2
100
AcDbLine
 10
-48.93102085997043
 20
13.89219969409416
 30
0.0
 11
-45.54607534134175
 21
13.89219969409464
 31
0.0
  0
LINE
  5
D2
102
{ACAD_REACTORS
330
1BB
330
1BC
102
}
330
47
100
AcDbEntity
  8
0
  6
Continuous
 62
     2
100
AcDbLine
 10
-45.54607534134175
 20
13.10693438797105
 30
0.0
 11
-45.54607534134175
 21
13.89219969409464
 31
0.0
  0
LINE
  5
D3
102
{ACAD_REACTORS
330
1BB
330
1BC
102
}
330
47
100
AcDbEntity
  8
0
  6
Continuous
 62
     2
100
AcDbLine
 10
-46.35717437881513
 20
13.10693438797105
 30
0.0
 11
-45.54607534134175
 21
13.10693438797105
 31
0.0
  0
LINE
  5
D4
102
{ACAD_REACTORS
330
1BB
330
1BC
102
}
330
47
100
AcDbEntity
  8
0
  6
Continuous
 62
     2
100
AcDbLine
 10
-46.35717437881513
 20
10.83839017028356
 30
0.0
 11
-46.35717437881513
 21
13.10693438797105
 31
0.0
  0
LINE
  5
D5
102
{ACAD_REACTORS
330
1BB
330
1BC
102
}
330
47
100
AcDbEntity
  8
0
  6
Continuous
 62
     2
100
AcDbLine
 10
-47.54996708098284
 20
10.83839017028356
 30
0.0
 11
-46.35717437881513
 21
10.83839017028356
 31
0.0
  0
LINE
  5
D6
102
{ACAD_REACTORS
330
1B1
330
1B2
102
}
330
47
100
AcDbEntity
  8
0
  6
Continuous
 62
     2
100
AcDbLine
 10
-48.24655801904734
 20
17.25139017026905
 30
0.0
 11
-49.64928223679664
 21
17.25139017026905
 31
0.0
  0
LINE
  5
D7
102
{ACAD_REACTORS
330
1B1
330
1B2
102
}
330
47
100
AcDbEntity
  8
0
  6
Continuous
 62
     2
100
AcDbLine
 10
-48.24655801904734
 20
17.25139017026905
 30
0.0
 11
-47.64539049715555
 21
16.57156684871356
 31
0.0
  0
LINE
  5
D8
102
{ACAD_REACTORS
330
1B1
330
1B2
102
}
330
47
100
AcDbEntity
  8
0
  6
Continuous
 62
     2
100
AcDbLine
 10
-47.64539049715555
 20
16.57156684871356
 30
0.0
 11
-47.04422297526276
 21
17.25139017026905
 31
0.0
  0
LINE
  5
D9
102
{ACAD_REACTORS
330
1B1
330
1B2
102
}
330
47
100
AcDbEntity
  8
0
  6
Continuous
 62
     2
100
AcDbLine
 10
-46.94402838828205
 20
15.77843964023285
 30
0.0
 11
-45.64149875751554
 21
17.25139017026905
 31
0.0
  0
LINE
  5
DA
102
{ACAD_REACTORS
330
1B1
330
1B2
102
}
330
47
100
AcDbEntity
  8
0
  6
Continuous
 62
     2
100
AcDbLine
 10
-46.94402838828205
 20
15.77843964023285
 30
0.0
 11
-45.54607534134175
 21
14.19758064645785
 31
0.0
  0
LINE
  5
DB
102
{ACAD_REACTORS
330
1B1
330
1B2
102
}
330
47
100
AcDbEntity
  8
0
  6
Continuous
 62
     2
100
AcDbLine
 10
-46.94879955909005
 20
14.19758064645785
 30
0.0
 11
-45.54607534134175
 21
14.19758064645785
 31
0.0
  0
LINE
  5
DC
102
{ACAD_REACTORS
330
1B1
330
1B2
102
}
330
47
100
AcDbEntity
  8
0
  6
Continuous
 62
     2
100
AcDbLine
 10
-47.64539049715555
 20
14.98531243175157
 30
0.0
 11
-46.94879955909005
 21
14.19758064645785
 31
0.0
  0
LINE
  5
DD
102
{ACAD_REACTORS
330
1AF
330
1B0
102
}
330
47
100
AcDbEntity
  8
0
  6
Continuous
 62
     2
100
AcDbLine
 10
-51.10448933343923
 20
17.25139017026905
 30
0.0
 11
-49.86398492318634
 21
17.25139017026905
 31
0.0
  0
LINE
  5
DE
102
{ACAD_REACTORS
330
1AF
330
1B0
102
}
330
47
100
AcDbEntity
  8
0
  6
Continuous
 62
     2
100
AcDbLine
 10
-49.86398492318634
 20
17.25139017026905
 30
0.0
 11
-49.86398492318634
 21
14.19758064645785
 31
0.0
  0
LINE
  5
DF
102
{ACAD_REACTORS
330
1AF
330
1B0
102
}
330
47
100
AcDbEntity
  8
0
  6
Continuous
 62
     2
100
AcDbLine
 10
-51.10448933343923
 20
14.19758064645785
 30
0.0
 11
-51.10448933343923
 21
17.25139017026905
 31
0.0
  0
LINE
  5
E0
102
{ACAD_REACTORS
330
1AD
330
1AE
102
}
330
47
100
AcDbEntity
  8
0
  6
Continuous
 62
     2
100
AcDbLine
 10
-52.57279941597685
 20
12.05991397980804
 30
0.0
 11
-52.27263417878444
 21
12.82772894579475
 31
0.0
  0
LINE
  5
E1
102
{ACAD_REACTORS
330
1AD
330
1AE
102
}
330
47
100
AcDbEntity
  8
0
  6
Continuous
 62
     2
100
AcDbLine
 10
-53.05033502059766
 20
10.83839017028356
 30
0.0
 11
-52.83885496712185
 21
11.37935071450144
 31
0.0
  0
LINE
  5
E2
102
{ACAD_REACTORS
330
1AD
330
1AE
102
}
330
47
100
AcDbEntity
  8
0
  6
Continuous
 62
     2
100
AcDbLine
 10
-52.89288638391133
 20
13.89219969409464
 30
0.0
 11
-54.29083943085064
 21
10.83839017028356
 31
0.0
  0
LINE
  5
E3
102
{ACAD_REACTORS
330
1AD
330
1AE
102
}
330
47
100
AcDbEntity
  8
0
  6
Continuous
 62
     2
100
AcDbLine
 10
-50.25442892671833
 20
10.83839017028356
 30
0.0
 11
-51.49493333697225
 21
10.83839017028356
 31
0.0
  0
LINE
  5
E4
102
{ACAD_REACTORS
330
1AD
330
1AE
102
}
330
47
100
AcDbEntity
  8
0
  6
Continuous
 62
     2
100
AcDbLine
 10
-52.83885496712185
 20
11.37935071450144
 30
0.0
 11
-51.70641339044803
 21
11.37935071450144
 31
0.0
  0
LINE
  5
E5
102
{ACAD_REACTORS
330
1AB
330
1AC
102
}
330
47
100
AcDbEntity
  8
0
  6
Continuous
 62
     2
100
AcDbLine
 10
-56.44835157003286
 20
13.10693438797105
 30
0.0
 11
-55.63725253255825
 21
13.10693438797105
 31
0.0
  0
LINE
  5
E6
102
{ACAD_REACTORS
330
1AB
330
1AC
102
}
330
47
100
AcDbEntity
  8
0
  6
Continuous
 62
     2
100
AcDbLine
 10
-53.63336079291923
 20
13.89219969409464
 30
0.0
 11
-56.44835157003286
 21
13.89219969409464
 31
0.0
  0
LINE
  5
E7
102
{ACAD_REACTORS
330
1AB
330
1AC
102
}
330
47
100
AcDbEntity
  8
0
  6
Continuous
 62
     2
100
AcDbLine
 10
-53.63336079291923
 20
13.10693438797105
 30
0.0
 11
-53.63336079291923
 21
13.89219969409464
 31
0.0
  0
LINE
  5
E8
102
{ACAD_REACTORS
330
1AB
330
1AC
102
}
330
47
100
AcDbEntity
  8
0
  6
Continuous
 62
     2
100
AcDbLine
 10
-54.44445983039174
 20
13.10693438797105
 30
0.0
 11
-53.63336079291923
 21
13.10693438797105
 31
0.0
  0
LINE
  5
E9
102
{ACAD_REACTORS
330
1AB
330
1AC
102
}
330
47
100
AcDbEntity
  8
0
  6
Continuous
 62
     2
100
AcDbLine
 10
-54.44445983039174
 20
10.83839017028356
 30
0.0
 11
-54.44445983039174
 21
13.10693438797105
 31
0.0
  0
LINE
  5
EA
102
{ACAD_REACTORS
330
1A9
330
1AA
102
}
330
47
100
AcDbEntity
  8
0
  6
Continuous
 62
     2
100
AcDbLine
 10
-53.77634498629374
 20
14.19758064645785
 30
0.0
 11
-53.77634498629374
 21
15.50635615666255
 31
0.0
  0
LINE
  5
EB
102
{ACAD_REACTORS
330
1A9
330
1AA
102
}
330
47
100
AcDbEntity
  8
0
  6
Continuous
 62
     2
100
AcDbLine
 10
-54.96913768846025
 20
17.25139017026905
 30
0.0
 11
-54.96913768846025
 21
14.19758064645785
 31
0.0
  0
LINE
  5
EC
102
{ACAD_REACTORS
330
1A9
330
1AA
102
}
330
47
100
AcDbEntity
  8
0
  6
Continuous
 62
     2
100
AcDbLine
 10
-53.77634498629374
 20
17.25139017026905
 30
0.0
 11
-54.96913768846025
 21
17.25139017026905
 31
0.0
  0
LINE
  5
ED
102
{ACAD_REACTORS
330
1A9
330
1AA
102
}
330
47
100
AcDbEntity
  8
0
  6
Continuous
 62
     2
100
AcDbLine
 10
-52.53584057603973
 20
17.25139017026905
 30
0.0
 11
-52.53584057603973
 21
15.94261466006387
 31
0.0
  0
LINE
  5
EE
102
{ACAD_REACTORS
330
1A7
330
1A8
102
}
330
47
100
AcDbEntity
  8
0
  6
Continuous
 62
     2
100
AcDbLine
 10
-60.21757650887994
 20
13.89219969409464
 30
0.0
 11
-60.21757650887994
 21
10.83839017028356
 31
0.0
  0
LINE
  5
EF
102
{ACAD_REACTORS
330
1A7
330
1A8
102
}
330
47
100
AcDbEntity
  8
0
  6
Continuous
 62
     2
100
AcDbLine
 10
-59.02478380671235
 20
13.89219969409464
 30
0.0
 11
-60.21757650887994
 21
13.89219969409464
 31
0.0
  0
LINE
  5
F0
102
{ACAD_REACTORS
330
1A7
330
1A8
102
}
330
47
100
AcDbEntity
  8
0
  6
Continuous
 62
     2
100
AcDbLine
 10
-57.78427939645945
 20
10.83839017028356
 30
0.0
 11
-56.59148669429305
 21
10.83839017028356
 31
0.0
  0
LINE
  5
F1
102
{ACAD_REACTORS
330
1A7
330
1A8
102
}
330
47
100
AcDbEntity
  8
0
  6
Continuous
 62
     2
100
AcDbLine
 10
-60.21757650887994
 20
10.83839017028356
 30
0.0
 11
-59.02478380671235
 21
10.83839017028356
 31
0.0
  0
LINE
  5
F2
102
{ACAD_REACTORS
330
1B7
330
1B8
102
}
330
47
100
AcDbEntity
  8
0
  6
Continuous
 62
     2
100
AcDbLine
 10
-56.54362405532083
 20
16.07349221108436
 30
0.0
 11
-56.54362405532083
 21
16.55337656482607
 31
0.0
  0
LINE
  5
F3
102
{ACAD_REACTORS
330
1B7
330
1B8
102
}
330
47
100
AcDbEntity
  8
0
  6
Continuous
 62
     2
100
AcDbLine
 10
-55.20769622889316
 20
16.07349221108436
 30
0.0
 11
-56.54362405532083
 21
16.07349221108436
 31
0.0
  0
LINE
  5
F4
102
{ACAD_REACTORS
330
1B7
330
1B8
102
}
330
47
100
AcDbEntity
  8
0
  6
Continuous
 62
     2
100
AcDbLine
 10
-55.20769622889316
 20
15.37547860564206
 30
0.0
 11
-55.20769622889316
 21
16.07349221108436
 31
0.0
  0
LINE
  5
F5
102
{ACAD_REACTORS
330
1B7
330
1B8
102
}
330
47
100
AcDbEntity
  8
0
  6
Continuous
 62
     2
100
AcDbLine
 10
-56.54362405532083
 20
15.37547860564206
 30
0.0
 11
-55.20769622889316
 21
15.37547860564206
 31
0.0
  0
LINE
  5
F6
102
{ACAD_REACTORS
330
1A5
330
1A6
102
}
330
47
100
AcDbEntity
  8
0
  6
Continuous
 62
     2
100
AcDbLine
 10
-60.02657874564775
 20
17.25139017026905
 30
0.0
 11
-60.02657874564775
 21
14.19758064645785
 31
0.0
  0
LINE
  5
F7
102
{ACAD_REACTORS
330
1A5
330
1A6
102
}
330
47
100
AcDbEntity
  8
0
  6
Continuous
 62
     2
100
AcDbLine
 10
-60.02657874564775
 20
14.19758064645785
 30
0.0
 11
-61.21937144781415
 21
14.19758064645785
 31
0.0
  0
LINE
  5
F8
102
{ACAD_REACTORS
330
1A5
330
1A6
102
}
330
47
100
AcDbEntity
  8
0
  6
Continuous
 62
     2
100
AcDbLine
 10
-61.21937144781415
 20
14.19758064645785
 30
0.0
 11
-61.21937144781415
 21
15.33185275530167
 31
0.0
  0
LINE
  5
F9
102
{ACAD_REACTORS
330
1A5
330
1A6
102
}
330
47
100
AcDbEntity
  8
0
  6
Continuous
 62
     2
100
AcDbLine
 10
-62.26902902572164
 20
14.19758064645785
 30
0.0
 11
-63.46182172788824
 21
14.19758064645785
 31
0.0
  0
LINE
  5
FA
102
{ACAD_REACTORS
330
1A5
330
1A6
102
}
330
47
100
AcDbEntity
  8
0
  6
Continuous
 62
     2
100
AcDbLine
 10
-63.46182172788824
 20
17.25139017026905
 30
0.0
 11
-62.26902902572164
 21
17.25139017026905
 31
0.0
  0
LINE
  5
FB
102
{ACAD_REACTORS
330
1A5
330
1A6
102
}
330
47
100
AcDbEntity
  8
0
  6
Continuous
 62
     2
100
AcDbLine
 10
-62.26902902572164
 20
17.25139017026905
 30
0.0
 11
-62.26902902572164
 21
16.18255683693445
 31
0.0
  0
LINE
  5
FC
102
{ACAD_REACTORS
330
1A5
330
1A6
102
}
330
47
100
AcDbEntity
  8
0
  6
Continuous
 62
     2
100
AcDbLine
 10
-62.26902902572164
 20
16.18255683693445
 30
0.0
 11
-61.21937144781415
 21
16.18255683693445
 31
0.0
  0
LINE
  5
FD
102
{ACAD_REACTORS
330
1B3
330
1B4
102
}
330
47
100
AcDbEntity
  8
0
  6
Continuous
 62
     2
100
AcDbLine
 10
-65.41800175944184
 20
16.58828432482895
 30
0.0
 11
-65.10070669789994
 21
16.58828432482895
 31
0.0
  0
LINE
  5
FE
102
{ACAD_REACTORS
330
1B3
330
1B4
102
}
330
47
100
AcDbEntity
  8
0
  6
Continuous
 62
     2
100
AcDbLine
 10
-65.41800175944184
 20
15.88255667548674
 30
0.0
 11
-65.10070669789994
 21
15.88255667548674
 31
0.0
  0
LINE
  5
FF
102
{ACAD_REACTORS
330
1B3
330
1B4
102
}
330
47
100
AcDbEntity
  8
0
  6
Continuous
 62
     2
100
AcDbLine
 10
-66.65850616969595
 20
17.25139017026905
 30
0.0
 11
-66.65850616969595
 21
14.19758064645785
 31
0.0
  0
LINE
  5
100
102
{ACAD_REACTORS
330
1B3
330
1B4
102
}
330
47
100
AcDbEntity
  8
0
  6
Continuous
 62
     2
100
AcDbLine
 10
-66.65850616969595
 20
17.25139017026905
 30
0.0
 11
-64.65923417166155
 21
17.25139017026905
 31
0.0
  0
LINE
  5
101
102
{ACAD_REACTORS
330
1B3
330
1B4
102
}
330
47
100
AcDbEntity
  8
0
  6
Continuous
 62
     2
100
AcDbLine
 10
-65.41800175944184
 20
15.14065888760166
 30
0.0
 11
-64.65923417166155
 21
15.14065888760166
 31
0.0
  0
LINE
  5
102
102
{ACAD_REACTORS
330
1B9
330
1BA
102
}
330
47
100
AcDbEntity
  8
0
  6
Continuous
 62
     2
100
AcDbLine
 10
-72.75500220299264
 20
16.22311769163426
 30
0.0
 11
-72.75500220299264
 21
11.86666264891716
 31
0.0
  0
LINE
  5
103
102
{ACAD_REACTORS
330
1B9
330
1BA
102
}
330
47
100
AcDbEntity
  8
0
  6
Continuous
 62
     2
100
AcDbLine
 10
-72.43928527991696
 20
16.53883461471045
 30
0.0
 11
-70.96345201890733
 21
16.53883461471045
 31
0.0
  0
LINE
  5
104
102
{ACAD_REACTORS
330
1B9
330
1BA
102
}
330
47
100
AcDbEntity
  8
0
  6
Continuous
 62
     2
100
AcDbLine
 10
-70.64773509583074
 20
15.61909307257375
 30
0.0
 11
-70.64773509583074
 21
16.22311769163426
 31
0.0
  0
LINE
  5
105
102
{ACAD_REACTORS
330
1B9
330
1BA
102
}
330
47
100
AcDbEntity
  8
0
  6
Continuous
 62
     2
100
AcDbLine
 10
-70.64773509583074
 20
11.86666264891716
 30
0.0
 11
-70.64773509583074
 21
13.39743358044876
 31
0.0
  0
LINE
  5
106
102
{ACAD_REACTORS
330
1B9
330
1BA
102
}
330
47
100
AcDbEntity
  8
0
  6
Continuous
 62
     2
100
AcDbLine
 10
-67.55986786594664
 20
10.83839017028356
 30
0.0
 11
-73.03317995666345
 21
10.83839017028356
 31
0.0
  0
LINE
  5
107
102
{ACAD_REACTORS
330
1B9
330
1BA
102
}
330
47
100
AcDbEntity
  8
0
  6
Continuous
 62
     2
100
AcDbLine
 10
-67.13562325056276
 20
16.82714555486706
 30
0.0
 11
-67.13562325056276
 21
11.26263478566685
 31
0.0
  0
LINE
  5
108
102
{ACAD_REACTORS
330
1B9
330
1BA
102
}
330
47
100
AcDbEntity
  8
0
  6
Continuous
 62
     2
100
AcDbLine
 10
-73.03317995666345
 20
17.25139017025086
 30
0.0
 11
-67.55986786594664
 21
17.25139017025086
 31
0.0
  0
LINE
  5
109
102
{ACAD_REACTORS
330
1B9
330
1BA
102
}
330
47
100
AcDbEntity
  8
0
  6
Continuous
 62
     2
100
AcDbLine
 10
-73.45742457204625
 20
16.82714555486706
 30
0.0
 11
-73.45742457204625
 21
11.26263478566685
 31
0.0
  0
LINE
  5
10A
102
{ACAD_REACTORS
330
1B9
330
1BA
102
}
330
47
100
AcDbEntity
  8
0
  6
Continuous
 62
     2
100
AcDbLine
 10
-70.96345201890733
 20
11.55094572584045
 30
0.0
 11
-72.43928527991696
 21
11.55094572584045
 31
0.0
  0
LINE
  5
10B
102
{ACAD_REACTORS
330
1B3
330
1B4
102
}
330
47
100
AcDbEntity
  8
0
  6
Continuous
 62
     2
100
AcDbLine
 10
-65.41800175944184
 20
14.19758064645785
 30
0.0
 11
-65.41800175944184
 21
15.14065888760166
 31
0.0
  0
LINE
  5
10C
102
{ACAD_REACTORS
330
1B3
330
1B4
102
}
330
47
100
AcDbEntity
  8
0
  6
Continuous
 62
     2
100
AcDbLine
 10
-66.65850616969595
 20
14.19758064645785
 30
0.0
 11
-65.41800175944184
 21
14.19758064645785
 31
0.0
  0
LINE
  5
10D
102
{ACAD_REACTORS
330
1B3
330
1B4
102
}
330
47
100
AcDbEntity
  8
0
  6
Continuous
 62
     2
100
AcDbLine
 10
-65.41800175944184
 20
15.88255667548674
 30
0.0
 11
-65.41800175944184
 21
16.58828432482895
 31
0.0
  0
LINE
  5
10E
102
{ACAD_REACTORS
330
1A5
330
1A6
102
}
330
47
100
AcDbEntity
  8
0
  6
Continuous
 62
     2
100
AcDbLine
 10
-63.46182172788824
 20
17.25139017026905
 30
0.0
 11
-63.46182172788824
 21
14.19758064645785
 31
0.0
  0
LINE
  5
10F
102
{ACAD_REACTORS
330
1A5
330
1A6
102
}
330
47
100
AcDbEntity
  8
0
  6
Continuous
 62
     2
100
AcDbLine
 10
-62.26902902572164
 20
15.33185275530167
 30
0.0
 11
-62.26902902572164
 21
14.19758064645785
 31
0.0
  0
LINE
  5
110
102
{ACAD_REACTORS
330
1A5
330
1A6
102
}
330
47
100
AcDbEntity
  8
0
  6
Continuous
 62
     2
100
AcDbLine
 10
-61.21937144781415
 20
15.33185275530167
 30
0.0
 11
-62.26902902572164
 21
15.33185275530167
 31
0.0
  0
LINE
  5
111
102
{ACAD_REACTORS
330
1A5
330
1A6
102
}
330
47
100
AcDbEntity
  8
0
  6
Continuous
 62
     2
100
AcDbLine
 10
-61.21937144781415
 20
17.25139017026905
 30
0.0
 11
-60.02657874564775
 21
17.25139017026905
 31
0.0
  0
LINE
  5
112
102
{ACAD_REACTORS
330
1A5
330
1A6
102
}
330
47
100
AcDbEntity
  8
0
  6
Continuous
 62
     2
100
AcDbLine
 10
-61.21937144781415
 20
16.18255683693445
 30
0.0
 11
-61.21937144781415
 21
17.25139017026905
 31
0.0
  0
LINE
  5
113
102
{ACAD_REACTORS
330
1B7
330
1B8
102
}
330
47
100
AcDbEntity
  8
0
  6
Continuous
 62
     2
100
AcDbLine
 10
-55.20769622889316
 20
16.55337656482607
 30
0.0
 11
-55.20769622889316
 21
17.25139017026905
 31
0.0
  0
LINE
  5
114
102
{ACAD_REACTORS
330
1B7
330
1B8
102
}
330
47
100
AcDbEntity
  8
0
  6
Continuous
 62
     2
100
AcDbLine
 10
-58.35801595267415
 20
17.25139017026905
 30
0.0
 11
-55.20769622889316
 21
17.25139017026905
 31
0.0
  0
LINE
  5
115
102
{ACAD_REACTORS
330
1B7
330
1B8
102
}
330
47
100
AcDbEntity
  8
0
  6
Continuous
 62
     2
100
AcDbLine
 10
-58.35801595267415
 20
14.19758064645785
 30
0.0
 11
-55.20769622889316
 21
14.19758064645785
 31
0.0
  0
LINE
  5
116
102
{ACAD_REACTORS
330
1B7
330
1B8
102
}
330
47
100
AcDbEntity
  8
0
  6
Continuous
 62
     2
100
AcDbLine
 10
-55.20769622889316
 20
14.19758064645785
 30
0.0
 11
-55.20769622889316
 21
14.89559425190035
 31
0.0
  0
LINE
  5
117
102
{ACAD_REACTORS
330
1B7
330
1B8
102
}
330
47
100
AcDbEntity
  8
0
  6
Continuous
 62
     2
100
AcDbLine
 10
-55.20769622889316
 20
14.89559425190035
 30
0.0
 11
-56.54362405532083
 21
14.89559425190035
 31
0.0
  0
LINE
  5
118
102
{ACAD_REACTORS
330
1B7
330
1B8
102
}
330
47
100
AcDbEntity
  8
0
  6
Continuous
 62
     2
100
AcDbLine
 10
-56.54362405532083
 20
14.89559425190035
 30
0.0
 11
-56.54362405532083
 21
15.37547860564206
 31
0.0
  0
LINE
  5
119
102
{ACAD_REACTORS
330
1B7
330
1B8
102
}
330
47
100
AcDbEntity
  8
0
  6
Continuous
 62
     2
100
AcDbLine
 10
-56.54362405532083
 20
16.55337656482607
 30
0.0
 11
-55.20769622889316
 21
16.55337656482607
 31
0.0
  0
LINE
  5
11A
102
{ACAD_REACTORS
330
1A7
330
1A8
102
}
330
47
100
AcDbEntity
  8
0
  6
Continuous
 62
     2
100
AcDbLine
 10
-59.02478380671235
 20
10.83839017028356
 30
0.0
 11
-59.02478380671235
 21
12.14716568048814
 31
0.0
  0
LINE
  5
11B
102
{ACAD_REACTORS
330
1A7
330
1A8
102
}
330
47
100
AcDbEntity
  8
0
  6
Continuous
 62
     2
100
AcDbLine
 10
-59.02478380671235
 20
12.14716568048814
 30
0.0
 11
-57.78427939645945
 21
10.83839017028356
 31
0.0
  0
LINE
  5
11C
102
{ACAD_REACTORS
330
1A7
330
1A8
102
}
330
47
100
AcDbEntity
  8
0
  6
Continuous
 62
     2
100
AcDbLine
 10
-56.59148669429305
 20
10.83839017028356
 30
0.0
 11
-56.59148669429305
 21
13.89219969409464
 31
0.0
  0
LINE
  5
11D
102
{ACAD_REACTORS
330
1A7
330
1A8
102
}
330
47
100
AcDbEntity
  8
0
  6
Continuous
 62
     2
100
AcDbLine
 10
-56.59148669429305
 20
13.89219969409464
 30
0.0
 11
-57.78427939645945
 21
13.89219969409464
 31
0.0
  0
LINE
  5
11E
102
{ACAD_REACTORS
330
1A7
330
1A8
102
}
330
47
100
AcDbEntity
  8
0
  6
Continuous
 62
     2
100
AcDbLine
 10
-57.78427939645945
 20
13.89219969409464
 30
0.0
 11
-57.78427939645945
 21
12.58342418388955
 31
0.0
  0
LINE
  5
11F
102
{ACAD_REACTORS
330
1A7
330
1A8
102
}
330
47
100
AcDbEntity
  8
0
  6
Continuous
 62
     2
100
AcDbLine
 10
-57.78427939645945
 20
12.58342418388955
 30
0.0
 11
-59.02478380671235
 21
13.89219969409464
 31
0.0
  0
LINE
  5
120
102
{ACAD_REACTORS
330
1A9
330
1AA
102
}
330
47
100
AcDbEntity
  8
0
  6
Continuous
 62
     2
100
AcDbLine
 10
-53.77634498629374
 20
15.50635615666255
 30
0.0
 11
-52.53584057603973
 21
14.19758064645785
 31
0.0
  0
LINE
  5
121
102
{ACAD_REACTORS
330
1A9
330
1AA
102
}
330
47
100
AcDbEntity
  8
0
  6
Continuous
 62
     2
100
AcDbLine
 10
-52.53584057603973
 20
14.19758064645785
 30
0.0
 11
-51.34304787387313
 21
14.19758064645785
 31
0.0
  0
LINE
  5
122
102
{ACAD_REACTORS
330
1A9
330
1AA
102
}
330
47
100
AcDbEntity
  8
0
  6
Continuous
 62
     2
100
AcDbLine
 10
-51.34304787387313
 20
14.19758064645785
 30
0.0
 11
-51.34304787387313
 21
17.25139017026905
 31
0.0
  0
LINE
  5
123
102
{ACAD_REACTORS
330
1A9
330
1AA
102
}
330
47
100
AcDbEntity
  8
0
  6
Continuous
 62
     2
100
AcDbLine
 10
-51.34304787387313
 20
17.25139017026905
 30
0.0
 11
-52.53584057603973
 21
17.25139017026905
 31
0.0
  0
LINE
  5
124
102
{ACAD_REACTORS
330
1A9
330
1AA
102
}
330
47
100
AcDbEntity
  8
0
  6
Continuous
 62
     2
100
AcDbLine
 10
-52.53584057603973
 20
15.94261466006387
 30
0.0
 11
-53.77634498629374
 21
17.25139017026905
 31
0.0
  0
LINE
  5
125
102
{ACAD_REACTORS
330
1A9
330
1AA
102
}
330
47
100
AcDbEntity
  8
0
  6
Continuous
 62
     2
100
AcDbLine
 10
-54.96913768846025
 20
14.19758064645785
 30
0.0
 11
-53.77634498629374
 21
14.19758064645785
 31
0.0
  0
LINE
  5
126
102
{ACAD_REACTORS
330
1AB
330
1AC
102
}
330
47
100
AcDbEntity
  8
0
  6
Continuous
 62
     2
100
AcDbLine
 10
-56.44835157003286
 20
13.89219969409464
 30
0.0
 11
-56.44835157003286
 21
13.10693438797105
 31
0.0
  0
LINE
  5
127
102
{ACAD_REACTORS
330
1AB
330
1AC
102
}
330
47
100
AcDbEntity
  8
0
  6
Continuous
 62
     2
100
AcDbLine
 10
-55.63725253255825
 20
13.10693438797105
 30
0.0
 11
-55.63725253255825
 21
10.83839017028356
 31
0.0
  0
LINE
  5
128
102
{ACAD_REACTORS
330
1AB
330
1AC
102
}
330
47
100
AcDbEntity
  8
0
  6
Continuous
 62
     2
100
AcDbLine
 10
-55.63725253255825
 20
10.83839017028356
 30
0.0
 11
-54.44445983039174
 21
10.83839017028356
 31
0.0
  0
LINE
  5
129
102
{ACAD_REACTORS
330
1AD
330
1AE
102
}
330
47
100
AcDbEntity
  8
0
  6
Continuous
 62
     2
100
AcDbLine
 10
-51.49493333697225
 20
10.83839017028356
 30
0.0
 11
-51.70641339044803
 21
11.37935071450144
 31
0.0
  0
LINE
  5
12A
102
{ACAD_REACTORS
330
1AD
330
1AE
102
}
330
47
100
AcDbEntity
  8
0
  6
Continuous
 62
     2
100
AcDbLine
 10
-51.65238197365864
 20
13.89219969409464
 30
0.0
 11
-50.25442892671833
 21
10.83839017028356
 31
0.0
  0
LINE
  5
12B
102
{ACAD_REACTORS
330
1AD
330
1AE
102
}
330
47
100
AcDbEntity
  8
0
  6
Continuous
 62
     2
100
AcDbLine
 10
-52.89288638391133
 20
13.89219969409464
 30
0.0
 11
-51.65238197365864
 21
13.89219969409464
 31
0.0
  0
LINE
  5
12C
102
{ACAD_REACTORS
330
1AD
330
1AE
102
}
330
47
100
AcDbEntity
  8
0
  6
Continuous
 62
     2
100
AcDbLine
 10
-54.29083943085064
 20
10.83839017028356
 30
0.0
 11
-53.05033502059766
 21
10.83839017028356
 31
0.0
  0
LINE
  5
12D
102
{ACAD_REACTORS
330
1AD
330
1AE
102
}
330
47
100
AcDbEntity
  8
0
  6
Continuous
 62
     2
100
AcDbLine
 10
-52.57279941597685
 20
12.05991397980804
 30
0.0
 11
-51.97246894159434
 21
12.05991397980804
 31
0.0
  0
LINE
  5
12E
102
{ACAD_REACTORS
330
1AD
330
1AE
102
}
330
47
100
AcDbEntity
  8
0
  6
Continuous
 62
     2
100
AcDbLine
 10
-51.97246894159434
 20
12.05991397980804
 30
0.0
 11
-52.27263417878444
 21
12.82772894579475
 31
0.0
  0
LINE
  5
12F
102
{ACAD_REACTORS
330
1AF
330
1B0
102
}
330
47
100
AcDbEntity
  8
0
  6
Continuous
 62
     2
100
AcDbLine
 10
-49.86398492318634
 20
14.19758064645785
 30
0.0
 11
-51.10448933343923
 21
14.19758064645785
 31
0.0
  0
LINE
  5
130
102
{ACAD_REACTORS
330
1B1
330
1B2
102
}
330
47
100
AcDbEntity
  8
0
  6
Continuous
 62
     2
100
AcDbLine
 10
-48.34198143522124
 20
14.19758064645785
 30
0.0
 11
-49.74470565296946
 21
14.19758064645785
 31
0.0
  0
LINE
  5
131
102
{ACAD_REACTORS
330
1B1
330
1B2
102
}
330
47
100
AcDbEntity
  8
0
  6
Continuous
 62
     2
100
AcDbLine
 10
-48.34198143522124
 20
14.19758064645785
 30
0.0
 11
-47.64539049715555
 21
14.98531243175157
 31
0.0
  0
LINE
  5
132
102
{ACAD_REACTORS
330
1B1
330
1B2
102
}
330
47
100
AcDbEntity
  8
0
  6
Continuous
 62
     2
100
AcDbLine
 10
-47.04422297526276
 20
17.25139017026905
 30
0.0
 11
-45.64149875751554
 21
17.25139017026905
 31
0.0
  0
LINE
  5
133
102
{ACAD_REACTORS
330
1B1
330
1B2
102
}
330
47
100
AcDbEntity
  8
0
  6
Continuous
 62
     2
100
AcDbLine
 10
-49.64928223679664
 20
17.25139017026905
 30
0.0
 11
-48.34675260602916
 21
15.77843964023285
 31
0.0
  0
LINE
  5
134
102
{ACAD_REACTORS
330
1B1
330
1B2
102
}
330
47
100
AcDbEntity
  8
0
  6
Continuous
 62
     2
100
AcDbLine
 10
-49.74470565296946
 20
14.19758064645785
 30
0.0
 11
-48.34675260602916
 21
15.77843964023285
 31
0.0
  0
LINE
  5
135
102
{ACAD_REACTORS
330
1BB
330
1BC
102
}
330
47
100
AcDbEntity
  8
0
  6
Continuous
 62
     2
100
AcDbLine
 10
-47.88394903758953
 20
11.88541057844716
 30
0.0
 11
-47.88394903758953
 21
11.01289357164384
 31
0.0
  0
LINE
  5
136
102
{ACAD_REACTORS
330
1BB
330
1BC
102
}
330
47
100
AcDbEntity
  8
0
  6
Continuous
 62
     2
100
AcDbLine
 10
-48.65360638055094
 20
13.10693438797105
 30
0.0
 11
-47.54996708098284
 21
13.10693438797105
 31
0.0
  0
LINE
  5
137
102
{ACAD_REACTORS
330
1BD
330
1BE
102
}
330
47
100
AcDbEntity
  8
0
  6
Continuous
 62
     2
100
AcDbLine
 10
-63.98665051684145
 20
11.88541057844765
 30
0.0
 11
-63.98665051684145
 21
11.01289357164444
 31
0.0
  0
LINE
  5
138
102
{ACAD_REACTORS
330
1BD
330
1BE
102
}
330
47
100
AcDbEntity
  8
0
  6
Continuous
 62
     2
100
AcDbLine
 10
-63.98665051684145
 20
12.84517928593056
 30
0.0
 11
-63.98665051684145
 21
13.71769629273385
 31
0.0
  0
LINE
  5
139
330
47
100
AcDbEntity
  8
1
  6
Continuous
 62
     7
100
AcDbLine
 10
51.85072506814245
 20
12.04489017026725
 30
0.0
 11
-41.29407945860893
 21
12.04489017026725
 31
0.0
  0
LINE
  5
13A
330
47
100
AcDbEntity
  8
1
  6
Continuous
 62
     6
100
AcDbLine
 10
-146.6940794586088
 20
3.54489017026725
 30
0.0
 11
-191.6492749318588
 21
3.54489017026725
 31
0.0
  0
LINE
  5
13B
330
47
100
AcDbEntity
  8
1
  6
Continuous
 62
     7
100
AcDbLine
 10
42.93231678646365
 20
29.04489017026725
 30
0.0
 11
42.93231678646365
 21
20.54489017026725
 31
0.0
  0
LINE
  5
13C
330
47
100
AcDbEntity
  8
1
  6
Continuous
 62
     7
100
AcDbLine
 10
16.43231678646404
 20
29.04489017026725
 30
0.0
 11
16.43231678646404
 21
20.54489017026725
 31
0.0
  0
LINE
  5
13D
330
47
100
AcDbEntity
  8
1
  6
Continuous
 62
     7
100
AcDbLine
 10
-41.29407945860893
 20
20.54489017026725
 30
0.0
 11
-41.29407945860893
 21
29.04489017026725
 31
0.0
  0
LINE
  5
13E
330
47
100
AcDbEntity
  8
1
  6
Continuous
 62
     7
100
AcDbLine
 10
-77.69407945860885
 20
20.54489017026725
 30
0.0
 11
-77.69407945860885
 21
29.04489017026725
 31
0.0
  0
LINE
  5
13F
330
47
100
AcDbEntity
  8
1
  6
Continuous
 62
     6
100
AcDbLine
 10
-41.29407945860893
 20
20.54489017026725
 30
0.0
 11
51.85072506814285
 21
20.54489017026725
 31
0.0
  0
LINE
  5
140
330
47
100
AcDbEntity
  8
1
  6
Continuous
 62
     7
100
AcDbLine
 10
-13.39407945860884
 20
12.04489017026717
 30
0.0
 11
-13.39407945860884
 21
20.54489017026725
 31
0.0
  0
LINE
  5
141
330
47
100
AcDbEntity
  8
1
  6
PHANTOM
 62
     2
100
AcDbLine
 10
-62.20742457204625
 20
24.66989017026717
 30
0.0
 11
-67.70742457204625
 21
24.66989017026717
 31
0.0
  0
LINE
  5
142
330
47
100
AcDbEntity
  8
1
  6
PHANTOM
 62
     2
100
AcDbLine
 10
-64.95742457204625
 20
27.41989017026717
 30
0.0
 11
-64.95742457204625
 21
21.91989017026717
 31
0.0
  0
LINE
  5
143
330
47
100
AcDbEntity
  8
1
  6
DOT_CENTER
 62
     2
100
AcDbLine
 10
-73.70742457204625
 20
24.66989017026717
 30
0.0
 11
-68.20742457204625
 21
24.66989017026717
 31
0.0
  0
ARC
  5
144
102
{ACAD_REACTORS
330
1BD
330
1BE
102
}
330
47
100
AcDbEntity
  8
0
  6
Continuous
 62
     2
100
AcDbCircle
 10
-65.32257843395925
 20
9.05261398693295
 30
0.0
 40
4.85259686349807
100
AcDbArc
 50
74.02000874164739
 51
84.84185523037506
  0
ARC
  5
145
102
{ACAD_REACTORS
330
1BD
330
1BE
102
}
330
47
100
AcDbEntity
  8
0
  6
Continuous
 62
     2
100
AcDbCircle
 10
-64.74653782520554
 20
12.20837434281725
 30
0.0
 40
0.9059297849853228
100
AcDbArc
 50
71.55192388185348
 51
113.372277888129
  0
ARC
  5
146
102
{ACAD_REACTORS
330
1BD
330
1BE
102
}
330
47
100
AcDbEntity
  8
0
  6
Continuous
 62
     2
100
AcDbCircle
 10
-64.90297785790756
 20
12.16022350285036
 30
0.0
 40
0.5115800601948042
100
AcDbArc
 50
208.5214732576957
 51
246.6277221118276
  0
ARC
  5
147
102
{ACAD_REACTORS
330
1BD
330
1BE
102
}
330
47
100
AcDbEntity
  8
0
  6
Continuous
 62
     2
100
AcDbCircle
 10
-64.74653782520554
 20
12.52221552156036
 30
0.0
 40
0.9059297849849257
100
AcDbArc
 50
246.6277221118712
 51
288.4480761181583
  0
ARC
  5
148
102
{ACAD_REACTORS
330
1BD
330
1BE
102
}
330
47
100
AcDbEntity
  8
0
  6
Continuous
 62
     2
100
AcDbCircle
 10
-65.16470555886633
 20
13.77576129759754
 30
0.0
 40
2.227384008972739
100
AcDbArc
 50
288.4480761181328
 51
301.9309089499593
  0
ARC
  5
149
102
{ACAD_REACTORS
330
1B9
330
1BA
102
}
330
47
100
AcDbEntity
  8
0
  6
Continuous
 62
     2
100
AcDbCircle
 10
-70.38977929147313
 20
14.50826332651155
 30
0.0
 40
0.9118481501444573
100
AcDbArc
 50
295.3740086781765
 51
64.62599132180762
  0
ARC
  5
14A
102
{ACAD_REACTORS
330
1B9
330
1BA
102
}
330
47
100
AcDbEntity
  8
0
  6
Continuous
 62
     2
100
AcDbCircle
 10
-69.86373659338525
 20
16.22294021498615
 30
0.0
 40
0.3157169230760746
100
AcDbArc
 50
90.18896704254594
 51
180.0
  0
ARC
  5
14B
102
{ACAD_REACTORS
330
1BB
330
1BC
102
}
330
47
100
AcDbEntity
  8
0
  6
Continuous
 62
     2
100
AcDbCircle
 10
-48.65360638055094
 20
12.15241138114496
 30
0.0
 40
0.9545230068260899
100
AcDbArc
 50
90.0
 51
109.337143219432
  0
ARC
  5
14C
102
{ACAD_REACTORS
330
1BB
330
1BC
102
}
330
47
100
AcDbEntity
  8
0
  6
Continuous
 62
     2
100
AcDbCircle
 10
-48.42291912057326
 20
12.36529493218885
 30
0.0
 40
0.9410597353348853
100
AcDbArc
 50
151.4785267423623
 51
208.5214732576697
  0
ARC
  5
14D
102
{ACAD_REACTORS
330
1BB
330
1BC
102
}
330
47
100
AcDbEntity
  8
0
  6
Continuous
 62
     2
100
AcDbCircle
 10
-48.64383634595154
 20
12.52221552156036
 30
0.0
 40
0.9059297849852865
100
AcDbArc
 50
246.6277221118184
 51
288.4480761180816
  0
ARC
  5
14E
102
{ACAD_REACTORS
330
1BB
330
1BC
102
}
330
47
100
AcDbEntity
  8
0
  6
Continuous
 62
     2
100
AcDbCircle
 10
-49.06200407961345
 20
13.77576129759694
 30
0.0
 40
2.227384008972748
100
AcDbArc
 50
288.4480761181337
 51
301.9309089499399
  0
ARC
  5
14F
102
{ACAD_REACTORS
330
1BB
330
1BC
102
}
330
47
100
AcDbEntity
  8
0
  6
Continuous
 62
     2
100
AcDbCircle
 10
-49.21987695470625
 20
15.67797587744525
 30
0.0
 40
4.852596863498824
100
AcDbArc
 50
275.1581447696362
 51
285.9799912583387
  0
ARC
  5
150
102
{ACAD_REACTORS
330
1BB
330
1BC
102
}
330
47
100
AcDbEntity
  8
0
  6
Continuous
 62
     2
100
AcDbCircle
 10
-48.93102085997043
 20
12.47808529422366
 30
0.0
 40
1.639695123940456
100
AcDbArc
 50
195.0618917771012
 51
275.158144769676
  0
ARC
  5
151
102
{ACAD_REACTORS
330
1B3
330
1B4
102
}
330
47
100
AcDbEntity
  8
0
  6
Continuous
 62
     2
100
AcDbCircle
 10
-64.65923417166155
 20
16.19602452893537
 30
0.0
 40
1.055365641333712
100
AcDbArc
 50
270.0
 51
90.0
  0
ARC
  5
152
102
{ACAD_REACTORS
330
1B9
330
1BA
102
}
330
47
100
AcDbEntity
  8
0
  6
Continuous
 62
     2
100
AcDbCircle
 10
-72.43928527991696
 20
11.86666264891716
 30
0.0
 40
0.3157169230756836
100
AcDbArc
 50
180.0
 51
270.0
  0
ARC
  5
153
102
{ACAD_REACTORS
330
1B9
330
1BA
102
}
330
47
100
AcDbEntity
  8
0
  6
Continuous
 62
     2
100
AcDbCircle
 10
-70.96345201890733
 20
16.22311769163426
 30
0.0
 40
0.315716923076593
100
AcDbArc
 50
0.0
 51
90.0
  0
ARC
  5
154
102
{ACAD_REACTORS
330
1B9
330
1BA
102
}
330
47
100
AcDbEntity
  8
0
  6
Continuous
 62
     2
100
AcDbCircle
 10
-70.96345201890733
 20
15.61909307257375
 30
0.0
 40
0.3157169230761203
100
AcDbArc
 50
295.1944106485397
 51
0.0
  0
ARC
  5
155
102
{ACAD_REACTORS
330
1B9
330
1BA
102
}
330
47
100
AcDbEntity
  8
0
  6
Continuous
 62
     2
100
AcDbCircle
 10
-70.96345201890733
 20
11.86666264891716
 30
0.0
 40
0.3157169230767103
100
AcDbArc
 50
270.0
 51
0.0
  0
ARC
  5
156
102
{ACAD_REACTORS
330
1B9
330
1BA
102
}
330
47
100
AcDbEntity
  8
0
  6
Continuous
 62
     2
100
AcDbCircle
 10
-73.03317995666345
 20
16.82714555486706
 30
0.0
 40
0.4242446153838024
100
AcDbArc
 50
90.0
 51
180.0
  0
ARC
  5
157
102
{ACAD_REACTORS
330
1B9
330
1BA
102
}
330
47
100
AcDbEntity
  8
0
  6
Continuous
 62
     2
100
AcDbCircle
 10
-67.55986786594664
 20
16.82714555486706
 30
0.0
 40
0.4242446153838841
100
AcDbArc
 50
0.0
 51
90.0
  0
ARC
  5
158
102
{ACAD_REACTORS
330
1B9
330
1BA
102
}
330
47
100
AcDbEntity
  8
0
  6
Continuous
 62
     2
100
AcDbCircle
 10
-67.55986786594664
 20
11.26263478566685
 30
0.0
 40
0.4242446153832891
100
AcDbArc
 50
270.0
 51
0.0
  0
ARC
  5
159
102
{ACAD_REACTORS
330
1B7
330
1B8
102
}
330
47
100
AcDbEntity
  8
0
  6
Continuous
 62
     2
100
AcDbCircle
 10
-58.34148397885514
 20
15.72448540836317
 30
0.0
 40
0.7717997786796417
100
AcDbArc
 50
321.8795802028433
 51
38.12041979715967
  0
ARC
  5
15A
102
{ACAD_REACTORS
330
1B7
330
1B8
102
}
330
47
100
AcDbEntity
  8
0
  6
Continuous
 62
     2
100
AcDbCircle
 10
-58.14174394250895
 20
15.56775423024274
 30
0.0
 40
0.5179085730134427
100
AcDbArc
 50
218.1204197971506
 51
321.8795802028566
  0
ARC
  5
15B
102
{ACAD_REACTORS
330
1B5
330
1B6
102
}
330
47
100
AcDbEntity
  8
0
  6
Continuous
 62
     2
100
AcDbCircle
 10
-61.82175153146915
 20
12.36529493218885
 30
0.0
 40
1.458034083652003
100
AcDbArc
 50
297.548148175701
 51
62.45185182429898
  0
ARC
  5
15C
102
{ACAD_REACTORS
330
1B5
330
1B6
102
}
330
47
100
AcDbEntity
  8
0
  6
Continuous
 62
     2
100
AcDbCircle
 10
-62.38363131513574
 20
12.36529493218885
 30
0.0
 40
1.458034083651495
100
AcDbArc
 50
117.5481481756626
 51
242.4518518243373
  0
ARC
  5
15D
102
{ACAD_REACTORS
330
1B5
330
1B6
102
}
330
47
100
AcDbEntity
  8
0
  6
Continuous
 62
     2
100
AcDbCircle
 10
-62.10269142330245
 20
11.82671992188605
 30
0.0
 40
2.065479772208577
100
AcDbArc
 50
62.45185182430628
 51
117.5481481756661
  0
ARC
  5
15E
102
{ACAD_REACTORS
330
1B5
330
1B6
102
}
330
47
100
AcDbEntity
  8
0
  6
Continuous
 62
     2
100
AcDbCircle
 10
-62.10269142330245
 20
12.90386994249215
 30
0.0
 40
2.065479772208502
100
AcDbArc
 50
242.4518518243403
 51
297.5481481756873
  0
ARC
  5
15F
102
{ACAD_REACTORS
330
1B7
330
1B8
102
}
330
47
100
AcDbEntity
  8
0
  6
Continuous
 62
     2
100
AcDbCircle
 10
-57.94200390616265
 20
15.72448540836317
 30
0.0
 40
0.7717997786796846
100
AcDbArc
 50
141.879580202841
 51
218.120419797156
  0
ARC
  5
160
102
{ACAD_REACTORS
330
1B7
330
1B8
102
}
330
47
100
AcDbEntity
  8
0
  6
Continuous
 62
     2
100
AcDbCircle
 10
-58.14174394250895
 20
15.88121658648365
 30
0.0
 40
0.5179085730135288
100
AcDbArc
 50
38.12041979714365
 51
141.8795802028491
  0
ARC
  5
161
102
{ACAD_REACTORS
330
1B9
330
1BA
102
}
330
47
100
AcDbEntity
  8
0
  6
Continuous
 62
     2
100
AcDbCircle
 10
-73.03317995666345
 20
11.26263478566685
 30
0.0
 40
0.4242446153828041
100
AcDbArc
 50
180.0
 51
270.0
  0
ARC
  5
162
102
{ACAD_REACTORS
330
1B9
330
1BA
102
}
330
47
100
AcDbEntity
  8
0
  6
Continuous
 62
     2
100
AcDbCircle
 10
-70.96345201890733
 20
13.39743358044876
 30
0.0
 40
0.315716923076593
100
AcDbArc
 50
0.0
 51
64.80558935146027
  0
ARC
  5
163
102
{ACAD_REACTORS
330
1B9
330
1BA
102
}
330
47
100
AcDbEntity
  8
0
  6
Continuous
 62
     2
100
AcDbCircle
 10
-70.44086757133235
 20
14.50826332651155
 30
0.0
 40
0.9118975235576194
100
AcDbArc
 50
115.1944106485281
 51
244.8055893514877
  0
ARC
  5
164
102
{ACAD_REACTORS
330
1B9
330
1BA
102
}
330
47
100
AcDbEntity
  8
0
  6
Continuous
 62
     2
100
AcDbCircle
 10
-72.43928527991696
 20
16.22311769163426
 30
0.0
 40
0.315716923076188
100
AcDbArc
 50
90.0
 51
180.0
  0
ARC
  5
165
102
{ACAD_REACTORS
330
1B3
330
1B4
102
}
330
47
100
AcDbEntity
  8
0
  6
Continuous
 62
     2
100
AcDbCircle
 10
-65.10070669789994
 20
16.23542050015786
 30
0.0
 40
0.3528638246711218
100
AcDbArc
 50
270.0
 51
90.0
  0
ARC
  5
166
102
{ACAD_REACTORS
330
1B7
330
1B8
102
}
330
47
100
AcDbEntity
  8
0
  6
Continuous
 62
     2
100
AcDbCircle
 10
-58.35801595267415
 20
15.72448540836317
 30
0.0
 40
1.526904761905881
100
AcDbArc
 50
90.0
 51
270.0
  0
ARC
  5
167
102
{ACAD_REACTORS
330
1BB
330
1BC
102
}
330
47
100
AcDbEntity
  8
0
  6
Continuous
 62
     2
100
AcDbCircle
 10
-48.93102085997043
 20
12.25250457015395
 30
0.0
 40
1.639695123940209
100
AcDbArc
 50
90.0
 51
164.9381082228952
  0
ARC
  5
168
102
{ACAD_REACTORS
330
1BB
330
1BC
102
}
330
47
100
AcDbEntity
  8
0
  6
Continuous
 62
     2
100
AcDbCircle
 10
-49.35014870343204
 20
12.36529493218885
 30
0.0
 40
1.205656168393009
100
AcDbArc
 50
164.938108222903
 51
195.0618917770961
  0
ARC
  5
169
102
{ACAD_REACTORS
330
1BB
330
1BC
102
}
330
47
100
AcDbEntity
  8
0
  6
Continuous
 62
     2
100
AcDbCircle
 10
-48.80027637865464
 20
12.16022350285036
 30
0.0
 40
0.5115800601960279
100
AcDbArc
 50
208.5214732576862
 51
246.6277221118444
  0
ARC
  5
16A
102
{ACAD_REACTORS
330
1BB
330
1BC
102
}
330
47
100
AcDbEntity
  8
0
  6
Continuous
 62
     2
100
AcDbCircle
 10
-48.80027637865464
 20
12.57036636152785
 30
0.0
 40
0.5115800601944133
100
AcDbArc
 50
109.3371432194862
 51
151.478526742423
  0
ARC
  5
16B
102
{ACAD_REACTORS
330
1B9
330
1BA
102
}
330
47
100
AcDbEntity
  8
0
  6
Continuous
 62
     2
100
AcDbCircle
 10
-69.86373659338525
 20
12.81727031984806
 30
0.0
 40
0.315716923076792
100
AcDbArc
 50
180.0
 51
269.8110329574542
  0
ARC
  5
16C
102
{ACAD_REACTORS
330
1B9
330
1BA
102
}
330
47
100
AcDbEntity
  8
0
  6
Continuous
 62
     2
100
AcDbCircle
 10
-69.85812045807523
 20
14.52010526741705
 30
0.0
 40
2.018561131933266
100
AcDbArc
 50
269.8110329575858
 51
90.18896704241416
  0
ARC
  5
16D
102
{ACAD_REACTORS
330
1B9
330
1BA
102
}
330
47
100
AcDbEntity
  8
0
  6
Continuous
 62
     2
100
AcDbCircle
 10
-69.86373659338525
 20
15.61740492647937
 30
0.0
 40
0.315716923076792
100
AcDbArc
 50
180.0
 51
244.6259913216483
  0
ARC
  5
16E
102
{ACAD_REACTORS
330
1B9
330
1BA
102
}
330
47
100
AcDbEntity
  8
0
  6
Continuous
 62
     2
100
AcDbCircle
 10
-69.86373659338525
 20
13.39912172654314
 30
0.0
 40
0.3157169230765344
100
AcDbArc
 50
115.3740086783517
 51
180.0
  0
ARC
  5
16F
102
{ACAD_REACTORS
330
1BD
330
1BE
102
}
330
47
100
AcDbEntity
  8
0
  6
Continuous
 62
     2
100
AcDbCircle
 10
-65.03372233922335
 20
12.25250457015395
 30
0.0
 40
1.639695123940505
100
AcDbArc
 50
84.84185523036236
 51
164.9381082228866
  0
ARC
  5
170
102
{ACAD_REACTORS
330
1BD
330
1BE
102
}
330
47
100
AcDbEntity
  8
0
  6
Continuous
 62
     2
100
AcDbCircle
 10
-65.45285018268615
 20
12.36529493218885
 30
0.0
 40
1.205656168390943
100
AcDbArc
 50
164.9381082228765
 51
195.0618917770949
  0
ARC
  5
171
102
{ACAD_REACTORS
330
1BD
330
1BE
102
}
330
47
100
AcDbEntity
  8
0
  6
Continuous
 62
     2
100
AcDbCircle
 10
-65.03372233922335
 20
12.47808529422366
 30
0.0
 40
1.639695123939387
100
AcDbArc
 50
195.0618917770895
 51
275.1581447696395
  0
ARC
  5
172
102
{ACAD_REACTORS
330
1BD
330
1BE
102
}
330
47
100
AcDbEntity
  8
0
  6
Continuous
 62
     2
100
AcDbCircle
 10
-65.32257843395925
 20
15.67797587744525
 30
0.0
 40
4.852596863498136
100
AcDbArc
 50
275.1581447696249
 51
285.9799912583529
  0
ARC
  5
173
102
{ACAD_REACTORS
330
1BD
330
1BE
102
}
330
47
100
AcDbEntity
  8
0
  6
Continuous
 62
     2
100
AcDbCircle
 10
-64.52562059982725
 20
12.36529493218885
 30
0.0
 40
0.9410597353332545
100
AcDbArc
 50
151.4785267422669
 51
208.5214732577058
  0
ARC
  5
174
102
{ACAD_REACTORS
330
1BD
330
1BE
102
}
330
47
100
AcDbEntity
  8
0
  6
Continuous
 62
     2
100
AcDbCircle
 10
-64.90297785790756
 20
12.57036636152785
 30
0.0
 40
0.5115800601948713
100
AcDbArc
 50
113.3722778881994
 51
151.4785267423044
  0
ARC
  5
175
102
{ACAD_REACTORS
330
1BD
330
1BE
102
}
330
47
100
AcDbEntity
  8
0
  6
Continuous
 62
     2
100
AcDbCircle
 10
-65.16470555886633
 20
10.95482856678066
 30
0.0
 40
2.227384008973482
100
AcDbArc
 50
58.0690910500408
 51
71.55192388186722
  0
ARC
  5
176
102
{ACAD_REACTORS
330
1B5
330
1B6
102
}
330
47
100
AcDbEntity
  8
0
  6
Continuous
 62
     2
100
AcDbCircle
 10
-62.10269142330245
 20
12.52202611030936
 30
0.0
 40
0.5179085730133022
100
AcDbArc
 50
38.12041979714608
 51
141.8795802028588
  0
ARC
  5
177
102
{ACAD_REACTORS
330
1B5
330
1B6
102
}
330
47
100
AcDbEntity
  8
0
  6
Continuous
 62
     2
100
AcDbCircle
 10
-61.90295138695635
 20
12.36529493218885
 30
0.0
 40
0.7717997786794555
100
AcDbArc
 50
141.8795802028362
 51
218.120419797169
  0
ARC
  5
178
102
{ACAD_REACTORS
330
1B5
330
1B6
102
}
330
47
100
AcDbEntity
  8
0
  6
Continuous
 62
     2
100
AcDbCircle
 10
-62.10269142330245
 20
12.20856375406885
 30
0.0
 40
0.5179085730137287
100
AcDbArc
 50
218.1204197971935
 51
321.8795802028017
  0
ARC
  5
179
102
{ACAD_REACTORS
330
1B5
330
1B6
102
}
330
47
100
AcDbEntity
  8
0
  6
Continuous
 62
     2
100
AcDbCircle
 10
-62.30243145964886
 20
12.36529493218885
 30
0.0
 40
0.7717997786796947
100
AcDbArc
 50
321.8795802028417
 51
38.12041979715308
  0
CIRCLE
  5
17A
330
47
100
AcDbEntity
  8
1
  6
Continuous
 62
     2
100
AcDbCircle
 10
-64.95742457204625
 20
24.66989017026717
 30
0.0
 40
2.5
  0
CIRCLE
  5
17B
330
47
100
AcDbEntity
  8
1
  6
Continuous
 62
     2
100
AcDbCircle
 10
-64.95742457204625
 20
24.66989017026717
 30
0.0
 40
1.249999999999908
  0
CIRCLE
  5
17C
102
{ACAD_REACTORS
330
1B9
330
1BA
102
}
330
47
100
AcDbEntity
  8
0
  6
Continuous
 62
     2
100
AcDbCircle
 10
-70.41359430614594
 20
14.50826332651155
 30
0.0
 40
0.4709789327785074
  0
MTEXT
  5
17E
330
47
100
AcDbEntity
  8
1
 62
     3
100
AcDbMText
 10
-235.1442071457871
 20
190.336198325566
 30
0.0
 40
1.8
 41
0.0
 71
     7
 72
     1
  3
Weitergabe sowie Vervielf\U+00e4ltigung dieses Dokuments, Verwertung und \PMitteilung seines Inhalts sind verboten, soweit nicht ausdr\U+00fccklich gestattet. \PZuwiderhandlungen verpflichten zu Schadenersatz. Alle Rechte f\U+00fcr den Fall\Pder Pat
  1
ent-, Gebrauchsmuster- oder Designeintragung vorbehalten.
  7
CONVERTER_11
 73
     1
 44
0.99639855942377
  0
MTEXT
  5
17F
330
47
100
AcDbEntity
  8
1
 62
     3
100
AcDbMText
 10
-52.29109730699895
 20
190.336198325566
 30
0.0
 40
1.8
 41
0.0
 71
     7
 72
     1
  3
Transfer or duplication of this document as well as the utilisation or\Pcommunication of its content are not permitted unless express consent\Pis granted. Violations give rise to claims for damages. All rights reserved\Pin case of patent, utility mo
  1
del or design patent registrations.
  7
CONVERTER_11
 73
     1
 44
0.99639855942377
  0
TEXT
  5
180
330
47
100
AcDbEntity
  8
1
 62
     2
100
AcDbText
 10
-58.49407945860904
 20
4.78587295527564
 30
0.0
 40
1.8
  1
of
 41
0.9
  7
CONVERTER_11
100
AcDbText
  0
TEXT
  5
181
330
47
100
AcDbEntity
  8
1
 62
     2
100
AcDbText
 10
-76.69407945860885
 20
4.78587295527558
 30
0.0
 40
1.8
  1
page
 41
0.9
  7
CONVERTER_11
100
AcDbText
  0
TEXT
  5
182
330
47
100
AcDbEntity
  8
1
 62
     2
100
AcDbText
 10
-68.04781448826685
 20
4.74564151646524
 30
0.0
 40
1.8
  1
1
 41
0.9
  7
CONVERTER_11
100
AcDbText
  0
TEXT
  5
183
330
47
100
AcDbEntity
  8
1
 62
     2
100
AcDbText
 10
-53.25877064879535
 20
4.79489017026714
 30
0.0
 40
1.8
  1
1
 41
0.9
  7
CONVERTER_11
100
AcDbText
  0
MTEXT
  5
185
330
47
100
AcDbEntity
  8
1
 62
     7
100
AcDbMText
 10
5.27832280476665
 20
6.79489017026748
 30
0.0
 40
3.0
 41
0.0
 71
     5
 72
     1
  1
D-UT 2,5/4-TWIN
  7
CONVERTER_12
 73
     1
 44
1.20048019207683
  0
MTEXT
  5
186
330
47
100
AcDbEntity
  8
1
 62
     2
100
AcDbMText
 10
-40.29407945860893
 20
11.04489017026725
 30
0.0
 40
1.8
 41
0.0
 71
     1
 72
     1
  1
description
  7
CONVERTER_11
 73
     1
 44
1.20048019207683
  0
MTEXT
  5
187
330
47
100
AcDbEntity
  8
1
 62
     3
100
AcDbMText
 10
-51.49407945860895
 20
24.66989017026725
 30
0.0
 40
2.5
 41
0.0
 71
     5
 72
     1
  1
DIN A4
  7
CONVERTER_11
 73
     1
 44
1.20048019207683
  0
MTEXT
  5
188
330
47
100
AcDbEntity
  8
1
 62
     7
100
AcDbMText
 10
-237.6492749318579
 20
26.04489017026725
 30
0.0
 40
3.5
 41
0.0
 71
     5
 72
     1
  1
D
  7
CONVERTER_11
 73
     1
 44
1.20048019207683
  0
MTEXT
  5
189
330
47
100
AcDbEntity
  8
1
 62
     7
100
AcDbMText
 10
-237.6492749318579
 20
78.54489017026725
 30
0.0
 40
3.5
 41
0.0
 71
     5
 72
     1
  1
C
  7
CONVERTER_11
 73
     1
 44
1.20048019207683
  0
MTEXT
  5
18A
330
47
100
AcDbEntity
  8
1
 62
     7
100
AcDbMText
 10
-237.6492749318579
 20
128.5448901702673
 30
0.0
 40
3.5
 41
0.0
 71
     5
 72
     1
  1
B
  7
CONVERTER_11
 73
     1
 44
1.20048019207683
  0
MTEXT
  5
18B
330
47
100
AcDbEntity
  8
1
 62
     7
100
AcDbMText
 10
-237.6492749318579
 20
181.0448901702673
 30
0.0
 40
3.5
 41
0.0
 71
     5
 72
     1
  1
A
  7
CONVERTER_11
 73
     1
 44
1.20048019207683
  0
MTEXT
  5
18C
330
47
100
AcDbEntity
  8
1
 62
     7
100
AcDbMText
 10
32.60072506814035
 20
1.04489017026714
 30
0.0
 40
3.5
 41
0.0
 71
     5
 72
     1
  1
6
  7
CONVERTER_11
 73
     1
 44
1.20048019207683
  0
MTEXT
  5
18D
330
47
100
AcDbEntity
  8
1
 62
     7
100
AcDbMText
 10
-16.64927493185886
 20
1.04489017026714
 30
0.0
 40
3.5
 41
0.0
 71
     5
 72
     1
  1
5
  7
CONVERTER_11
 73
     1
 44
1.20048019207683
  0
MTEXT
  5
18E
330
47
100
AcDbEntity
  8
1
 62
     7
100
AcDbMText
 10
-66.64927493185894
 20
1.04489017026714
 30
0.0
 40
3.5
 41
0.0
 71
     5
 72
     1
  1
4
  7
CONVERTER_11
 73
     1
 44
1.20048019207683
  0
MTEXT
  5
18F
330
47
100
AcDbEntity
  8
1
 62
     7
100
AcDbMText
 10
-116.6492749318588
 20
1.04489017026714
 30
0.0
 40
3.5
 41
0.0
 71
     5
 72
     1
  1
3
  7
CONVERTER_11
 73
     1
 44
1.20048019207683
  0
MTEXT
  5
190
330
47
100
AcDbEntity
  8
1
 62
     7
100
AcDbMText
 10
-166.6492749318588
 20
1.04489017026714
 30
0.0
 40
3.5
 41
0.0
 71
     5
 72
     1
  1
2
  7
CONVERTER_11
 73
     1
 44
1.20048019207683
  0
MTEXT
  5
191
330
47
100
AcDbEntity
  8
1
 62
     7
100
AcDbMText
 10
-215.8992749318584
 20
1.04489017026714
 30
0.0
 40
3.5
 41
0.0
 71
     5
 72
     1
  1
1
  7
CONVERTER_11
 73
     1
 44
1.20048019207683
  0
MTEXT
  5
192
330
47
100
AcDbEntity
  8
1
 62
     7
100
AcDbMText
 10
54.35072506814015
 20
26.04489017026725
 30
0.0
 40
3.5
 41
0.0
 71
     5
 72
     1
  1
D
  7
CONVERTER_11
 73
     1
 44
1.20048019207683
  0
MTEXT
  5
193
330
47
100
AcDbEntity
  8
1
 62
     7
100
AcDbMText
 10
54.35072506814015
 20
128.5448901702692
 30
0.0
 40
3.5
 41
0.0
 71
     5
 72
     1
  1
B
  7
CONVERTER_11
 73
     1
 44
1.20048019207683
  0
MTEXT
  5
194
330
47
100
AcDbEntity
  8
1
 62
     7
100
AcDbMText
 10
54.35072506814015
 20
181.0448901702673
 30
0.0
 40
3.5
 41
0.0
 71
     5
 72
     1
  1
A
  7
CONVERTER_11
 73
     1
 44
1.20048019207683
  0
MTEXT
  5
195
330
47
100
AcDbEntity
  8
1
 62
     7
100
AcDbMText
 10
54.35072506814015
 20
78.54489017026916
 30
0.0
 40
3.5
 41
0.0
 71
     5
 72
     1
  1
C
  7
CONVERTER_11
 73
     1
 44
1.20048019207683
  0
MTEXT
  5
196
330
47
100
AcDbEntity
  8
1
 62
     2
100
AcDbMText
 10
-112.1320941836564
 20
16.29489017026717
 30
0.0
 40
2.0
 41
0.0
 71
     5
 72
     1
  1
General Information\P- Simplified representation\P- Document excluded from change process\P- Linear dimensions [mm]
  7
CONVERTER_11
 73
     1
 44
1.20048019207683
  0
TEXT
  5
197
330
47
100
AcDbEntity
  8
1
 62
     7
100
AcDbText
 10
-39.79407945860913
 20
13.34489017026715
 30
0.0
 40
2.5
  1
3047141
 41
0.81
  7
CONVERTER_12
100
AcDbText
  0
MTEXT
  5
198
330
47
100
AcDbEntity
  8
1
 62
     2
100
AcDbMText
 10
-40.19407945860885
 20
19.54489017026725
 30
0.0
 40
1.8
 41
0.0
 71
     1
 72
     1
  1
ident.-No.
  7
CONVERTER_11
 73
     1
 44
1.20048019207683
  0
MTEXT
  5
199
330
47
100
AcDbEntity
  8
1
 62
     2
100
AcDbMText
 10
44.03231678646387
 20
28.04489017026725
 30
0.0
 40
1.8
 41
0.0
 71
     1
 72
     1
  1
scale
  7
CONVERTER_11
 73
     1
 44
1.20048019207683
  0
MTEXT
  5
19B
330
47
100
AcDbEntity
  8
1
 62
     3
100
AcDbMText
 10
47.39152092730346
 20
21.84489017026735
 30
0.0
 40
2.5
 41
0.0
 71
     8
 72
     1
  1
1:1
  7
CONVERTER_13
 73
     1
 44
1.32052821128451
  0
TEXT
  5
19C
330
47
100
AcDbEntity
  8
1
 62
     7
100
AcDbText
 10
-40.19407945860885
 20
21.84489017026715
 30
0.0
 40
2.5
  1
00351794
 41
0.81
  7
CONVERTER_12
100
AcDbText
  0
MTEXT
  5
19E
330
47
100
AcDbEntity
  8
1
 62
     2
100
AcDbMText
 10
-40.19407945860885
 20
28.04489017026725
 30
0.0
 40
1.8
 41
0.0
 71
     1
 72
     1
  1
document-No. / RI
  7
CONVERTER_14
 73
     1
 44
1.32052821128451
  0
TEXT
  5
19F
330
47
100
AcDbEntity
  8
1
 62
     3
100
AcDbText
 10
-12.39407945860884
 20
13.34489017026715
 30
0.0
 40
2.5
  1
TECDOC 2D_Productdrawing
 41
0.81
  7
CONVERTER_12
100
AcDbText
  0
MTEXT
  5
1A0
330
47
100
AcDbEntity
  8
1
 62
     2
100
AcDbMText
 10
-12.39407945860884
 20
19.54489017026717
 30
0.0
 40
1.8
 41
0.0
 71
     1
 72
     1
  1
document-type
  7
CONVERTER_11
 73
     1
 44
1.20048019207683
  0
MTEXT
  5
1A1
330
47
100
AcDbEntity
  8
1
 62
     2
100
AcDbMText
 10
17.43231678646404
 20
28.04489017026717
 30
0.0
 40
1.8
 41
0.0
 71
     1
 72
     1
  1
date
  7
CONVERTER_11
 73
     1
 44
1.32052821128451
  0
TEXT
  5
1A2
330
47
100
AcDbEntity
  8
1
 62
     3
100
AcDbText
 10
17.43231678646404
 20
21.84489017026715
 30
0.0
 40
2.5
  1
28.12.2017
 41
0.81
  7
CONVERTER_12
100
AcDbText
  0
TEXT
  5
1A3
330
47
100
AcDbEntity
  8
1
 62
     7
100
AcDbText
 10
-20.16416723955305
 20
21.84489017026715
 30
0.0
 40
2.5
  1
02
 41
0.81
  7
CONVERTER_12
100
AcDbText
  0
TEXT
  5
1A4
330
47
100
AcDbEntity
  8
1
 62
     7
100
AcDbText
 10
-22.32053173659506
 20
21.84489017026715
 30
0.0
 40
2.5
  1
/
 41
0.9
  7
CONVERTER_11
100
AcDbText
  0
HATCH
  5
1A5
330
47
100
AcDbEntity
  8
1
  6
Continuous
 62
     2
100
AcDbHatch
 10
0.0
 20
0.0
 30
0.0
210
0.0
220
0.0
230
1.0
  2
_USER
 70
     0
 71
     1
 91
        1
 92
        1
 93
       12
 72
     1
 10
-60.02657874564775
 20
14.19758064645785
 11
-61.21937144781415
 21
14.19758064645785
 72
     1
 10
-61.21937144781415
 20
14.19758064645785
 11
-61.21937144781415
 21
15.33185275530167
 72
     1
 10
-61.21937144781415
 20
15.33185275530167
 11
-62.26902902572164
 21
15.33185275530167
 72
     1
 10
-62.26902902572164
 20
15.33185275530167
 11
-62.26902902572164
 21
14.19758064645785
 72
     1
 10
-62.26902902572164
 20
14.19758064645785
 11
-63.46182172788824
 21
14.19758064645785
 72
     1
 10
-63.46182172788824
 20
14.19758064645785
 11
-63.46182172788824
 21
17.25139017026905
 72
     1
 10
-63.46182172788824
 20
17.25139017026905
 11
-62.26902902572164
 21
17.25139017026905
 72
     1
 10
-62.26902902572164
 20
17.25139017026905
 11
-62.26902902572164
 21
16.18255683693445
 72
     1
 10
-62.26902902572164
 20
16.18255683693445
 11
-61.21937144781415
 21
16.18255683693445
 72
     1
 10
-61.21937144781415
 20
16.18255683693445
 11
-61.21937144781415
 21
17.25139017026905
 72
     1
 10
-61.21937144781415
 20
17.25139017026905
 11
-60.02657874564775
 21
17.25139017026905
 72
     1
 10
-60.02657874564775
 20
17.25139017026905
 11
-60.02657874564775
 21
14.19758064645785
 97
       12
330
111
330
112
330
FC
330
FB
330
FA
330
10E
330
F9
330
10F
330
110
330
F8
330
F7
330
F6
 75
     1
 76
     0
 52
45.0
 41
0.1
 77
     0
 78
     1
 53
45.0
 43
0.0
 44
0.0
 45
-0.0707106781186548
 46
0.0707106781186548
 79
     0
 98
        1
 10
0.0
 20
0.0
  0
HATCH
  5
1A6
330
47
100
AcDbEntity
  8
1
  6
Continuous
 62
     2
100
AcDbHatch
 10
0.0
 20
0.0
 30
0.0
210
0.0
220
0.0
230
1.0
  2
_USER
 70
     0
 71
     1
 91
        1
 92
        1
 93
       12
 72
     1
 10
-60.02657874564775
 20
14.19758064645785
 11
-61.21937144781415
 21
14.19758064645785
 72
     1
 10
-61.21937144781415
 20
14.19758064645785
 11
-61.21937144781415
 21
15.33185275530167
 72
     1
 10
-61.21937144781415
 20
15.33185275530167
 11
-62.26902902572164
 21
15.33185275530167
 72
     1
 10
-62.26902902572164
 20
15.33185275530167
 11
-62.26902902572164
 21
14.19758064645785
 72
     1
 10
-62.26902902572164
 20
14.19758064645785
 11
-63.46182172788824
 21
14.19758064645785
 72
     1
 10
-63.46182172788824
 20
14.19758064645785
 11
-63.46182172788824
 21
17.25139017026905
 72
     1
 10
-63.46182172788824
 20
17.25139017026905
 11
-62.26902902572164
 21
17.25139017026905
 72
     1
 10
-62.26902902572164
 20
17.25139017026905
 11
-62.26902902572164
 21
16.18255683693445
 72
     1
 10
-62.26902902572164
 20
16.18255683693445
 11
-61.21937144781415
 21
16.18255683693445
 72
     1
 10
-61.21937144781415
 20
16.18255683693445
 11
-61.21937144781415
 21
17.25139017026905
 72
     1
 10
-61.21937144781415
 20
17.25139017026905
 11
-60.02657874564775
 21
17.25139017026905
 72
     1
 10
-60.02657874564775
 20
17.25139017026905
 11
-60.02657874564775
 21
14.19758064645785
 97
       12
330
111
330
112
330
FC
330
FB
330
FA
330
10E
330
F9
330
10F
330
110
330
F8
330
F7
330
F6
 75
     1
 76
     0
 52
45.0
 41
0.1
 77
     0
 78
     1
 53
45.0
 43
0.0
 44
0.0
 45
-0.0707106781186548
 46
0.0707106781186548
 79
     0
 98
        1
 10
0.0
 20
0.0
  0
HATCH
  5
1A7
330
47
100
AcDbEntity
  8
1
  6
Continuous
 62
     2
100
AcDbHatch
 10
0.0
 20
0.0
 30
0.0
210
0.0
220
0.0
230
1.0
  2
_USER
 70
     0
 71
     1
 91
        1
 92
        1
 93
       10
 72
     1
 10
-57.78427939645945
 20
12.58342418388955
 11
-59.02478380671235
 21
13.89219969409464
 72
     1
 10
-59.02478380671235
 20
13.89219969409464
 11
-60.21757650887994
 21
13.89219969409464
 72
     1
 10
-60.21757650887994
 20
13.89219969409464
 11
-60.21757650887994
 21
10.83839017028356
 72
     1
 10
-60.21757650887994
 20
10.83839017028356
 11
-59.02478380671235
 21
10.83839017028356
 72
     1
 10
-59.02478380671235
 20
10.83839017028356
 11
-59.02478380671235
 21
12.14716568048814
 72
     1
 10
-59.02478380671235
 20
12.14716568048814
 11
-57.78427939645945
 21
10.83839017028356
 72
     1
 10
-57.78427939645945
 20
10.83839017028356
 11
-56.59148669429305
 21
10.83839017028356
 72
     1
 10
-56.59148669429305
 20
10.83839017028356
 11
-56.59148669429305
 21
13.89219969409464
 72
     1
 10
-56.59148669429305
 20
13.89219969409464
 11
-57.78427939645945
 21
13.89219969409464
 72
     1
 10
-57.78427939645945
 20
13.89219969409464
 11
-57.78427939645945
 21
12.58342418388955
 97
       10
330
11F
330
EF
330
EE
330
F1
330
11A
330
11B
330
F0
330
11C
330
11D
330
11E
 75
     1
 76
     0
 52
45.0
 41
0.1
 77
     0
 78
     1
 53
45.0
 43
0.0
 44
0.0
 45
-0.0707106781186548
 46
0.0707106781186548
 79
     0
 98
        1
 10
0.0
 20
0.0
  0
HATCH
  5
1A8
330
47
100
AcDbEntity
  8
1
  6
Continuous
 62
     2
100
AcDbHatch
 10
0.0
 20
0.0
 30
0.0
210
0.0
220
0.0
230
1.0
  2
_USER
 70
     0
 71
     1
 91
        1
 92
        1
 93
       10
 72
     1
 10
-57.78427939645945
 20
12.58342418388955
 11
-59.02478380671235
 21
13.89219969409464
 72
     1
 10
-59.02478380671235
 20
13.89219969409464
 11
-60.21757650887994
 21
13.89219969409464
 72
     1
 10
-60.21757650887994
 20
13.89219969409464
 11
-60.21757650887994
 21
10.83839017028356
 72
     1
 10
-60.21757650887994
 20
10.83839017028356
 11
-59.02478380671235
 21
10.83839017028356
 72
     1
 10
-59.02478380671235
 20
10.83839017028356
 11
-59.02478380671235
 21
12.14716568048814
 72
     1
 10
-59.02478380671235
 20
12.14716568048814
 11
-57.78427939645945
 21
10.83839017028356
 72
     1
 10
-57.78427939645945
 20
10.83839017028356
 11
-56.59148669429305
 21
10.83839017028356
 72
     1
 10
-56.59148669429305
 20
10.83839017028356
 11
-56.59148669429305
 21
13.89219969409464
 72
     1
 10
-56.59148669429305
 20
13.89219969409464
 11
-57.78427939645945
 21
13.89219969409464
 72
     1
 10
-57.78427939645945
 20
13.89219969409464
 11
-57.78427939645945
 21
12.58342418388955
 97
       10
330
11F
330
EF
330
EE
330
F1
330
11A
330
11B
330
F0
330
11C
330
11D
330
11E
 75
     1
 76
     0
 52
45.0
 41
0.1
 77
     0
 78
     1
 53
45.0
 43
0.0
 44
0.0
 45
-0.0707106781186548
 46
0.0707106781186548
 79
     0
 98
        1
 10
0.0
 20
0.0
  0
HATCH
  5
1A9
330
47
100
AcDbEntity
  8
1
  6
Continuous
 62
     2
100
AcDbHatch
 10
0.0
 20
0.0
 30
0.0
210
0.0
220
0.0
230
1.0
  2
_USER
 70
     0
 71
     1
 91
        1
 92
        1
 93
       10
 72
     1
 10
-52.53584057603973
 20
15.94261466006387
 11
-53.77634498629374
 21
17.25139017026905
 72
     1
 10
-53.77634498629374
 20
17.25139017026905
 11
-54.96913768846025
 21
17.25139017026905
 72
     1
 10
-54.96913768846025
 20
17.25139017026905
 11
-54.96913768846025
 21
14.19758064645785
 72
     1
 10
-54.96913768846025
 20
14.19758064645785
 11
-53.77634498629374
 21
14.19758064645785
 72
     1
 10
-53.77634498629374
 20
14.19758064645785
 11
-53.77634498629374
 21
15.50635615666255
 72
     1
 10
-53.77634498629374
 20
15.50635615666255
 11
-52.53584057603973
 21
14.19758064645785
 72
     1
 10
-52.53584057603973
 20
14.19758064645785
 11
-51.34304787387313
 21
14.19758064645785
 72
     1
 10
-51.34304787387313
 20
14.19758064645785
 11
-51.34304787387313
 21
17.25139017026905
 72
     1
 10
-51.34304787387313
 20
17.25139017026905
 11
-52.53584057603973
 21
17.25139017026905
 72
     1
 10
-52.53584057603973
 20
17.25139017026905
 11
-52.53584057603973
 21
15.94261466006387
 97
       10
330
124
330
EC
330
EB
330
125
330
EA
330
120
330
121
330
122
330
123
330
ED
 75
     1
 76
     0
 52
45.0
 41
0.1
 77
     0
 78
     1
 53
45.0
 43
0.0
 44
0.0
 45
-0.0707106781186548
 46
0.0707106781186548
 79
     0
 98
        1
 10
0.0
 20
0.0
  0
HATCH
  5
1AA
330
47
100
AcDbEntity
  8
1
  6
Continuous
 62
     2
100
AcDbHatch
 10
0.0
 20
0.0
 30
0.0
210
0.0
220
0.0
230
1.0
  2
_USER
 70
     0
 71
     1
 91
        1
 92
        1
 93
       10
 72
     1
 10
-52.53584057603973
 20
15.94261466006387
 11
-53.77634498629374
 21
17.25139017026905
 72
     1
 10
-53.77634498629374
 20
17.25139017026905
 11
-54.96913768846025
 21
17.25139017026905
 72
     1
 10
-54.96913768846025
 20
17.25139017026905
 11
-54.96913768846025
 21
14.19758064645785
 72
     1
 10
-54.96913768846025
 20
14.19758064645785
 11
-53.77634498629374
 21
14.19758064645785
 72
     1
 10
-53.77634498629374
 20
14.19758064645785
 11
-53.77634498629374
 21
15.50635615666255
 72
     1
 10
-53.77634498629374
 20
15.50635615666255
 11
-52.53584057603973
 21
14.19758064645785
 72
     1
 10
-52.53584057603973
 20
14.19758064645785
 11
-51.34304787387313
 21
14.19758064645785
 72
     1
 10
-51.34304787387313
 20
14.19758064645785
 11
-51.34304787387313
 21
17.25139017026905
 72
     1
 10
-51.34304787387313
 20
17.25139017026905
 11
-52.53584057603973
 21
17.25139017026905
 72
     1
 10
-52.53584057603973
 20
17.25139017026905
 11
-52.53584057603973
 21
15.94261466006387
 97
       10
330
124
330
EC
330
EB
330
125
330
EA
330
120
330
121
330
122
330
123
330
ED
 75
     1
 76
     0
 52
45.0
 41
0.1
 77
     0
 78
     1
 53
45.0
 43
0.0
 44
0.0
 45
-0.0707106781186548
 46
0.0707106781186548
 79
     0
 98
        1
 10
0.0
 20
0.0
  0
HATCH
  5
1AB
330
47
100
AcDbEntity
  8
1
  6
Continuous
 62
     2
100
AcDbHatch
 10
0.0
 20
0.0
 30
0.0
210
0.0
220
0.0
230
1.0
  2
_USER
 70
     0
 71
     1
 91
        1
 92
        1
 93
        8
 72
     1
 10
-53.63336079291923
 20
13.89219969409464
 11
-56.44835157003286
 21
13.89219969409464
 72
     1
 10
-56.44835157003286
 20
13.89219969409464
 11
-56.44835157003286
 21
13.10693438797105
 72
     1
 10
-56.44835157003286
 20
13.10693438797105
 11
-55.63725253255825
 21
13.10693438797105
 72
     1
 10
-55.63725253255825
 20
13.10693438797105
 11
-55.63725253255825
 21
10.83839017028356
 72
     1
 10
-55.63725253255825
 20
10.83839017028356
 11
-54.44445983039174
 21
10.83839017028356
 72
     1
 10
-54.44445983039174
 20
10.83839017028356
 11
-54.44445983039174
 21
13.10693438797105
 72
     1
 10
-54.44445983039174
 20
13.10693438797105
 11
-53.63336079291923
 21
13.10693438797105
 72
     1
 10
-53.63336079291923
 20
13.10693438797105
 11
-53.63336079291923
 21
13.89219969409464
 97
        8
330
E6
330
126
330
E5
330
127
330
128
330
E9
330
E8
330
E7
 75
     1
 76
     0
 52
45.0
 41
0.1
 77
     0
 78
     1
 53
45.0
 43
0.0
 44
0.0
 45
-0.0707106781186548
 46
0.0707106781186548
 79
     0
 98
        1
 10
0.0
 20
0.0
  0
HATCH
  5
1AC
330
47
100
AcDbEntity
  8
1
  6
Continuous
 62
     2
100
AcDbHatch
 10
0.0
 20
0.0
 30
0.0
210
0.0
220
0.0
230
1.0
  2
_USER
 70
     0
 71
     1
 91
        1
 92
        1
 93
        8
 72
     1
 10
-53.63336079291923
 20
13.89219969409464
 11
-56.44835157003286
 21
13.89219969409464
 72
     1
 10
-56.44835157003286
 20
13.89219969409464
 11
-56.44835157003286
 21
13.10693438797105
 72
     1
 10
-56.44835157003286
 20
13.10693438797105
 11
-55.63725253255825
 21
13.10693438797105
 72
     1
 10
-55.63725253255825
 20
13.10693438797105
 11
-55.63725253255825
 21
10.83839017028356
 72
     1
 10
-55.63725253255825
 20
10.83839017028356
 11
-54.44445983039174
 21
10.83839017028356
 72
     1
 10
-54.44445983039174
 20
10.83839017028356
 11
-54.44445983039174
 21
13.10693438797105
 72
     1
 10
-54.44445983039174
 20
13.10693438797105
 11
-53.63336079291923
 21
13.10693438797105
 72
     1
 10
-53.63336079291923
 20
13.10693438797105
 11
-53.63336079291923
 21
13.89219969409464
 97
        8
330
E6
330
126
330
E5
330
127
330
128
330
E9
330
E8
330
E7
 75
     1
 76
     0
 52
45.0
 41
0.1
 77
     0
 78
     1
 53
45.0
 43
0.0
 44
0.0
 45
-0.0707106781186548
 46
0.0707106781186548
 79
     0
 98
        1
 10
0.0
 20
0.0
  0
HATCH
  5
1AD
330
47
100
AcDbEntity
  8
1
  6
Continuous
 62
     2
100
AcDbHatch
 10
0.0
 20
0.0
 30
0.0
210
0.0
220
0.0
230
1.0
  2
_USER
 70
     0
 71
     1
 91
        2
 92
        1
 93
        8
 72
     1
 10
-51.49493333697225
 20
10.83839017028356
 11
-51.70641339044803
 21
11.37935071450144
 72
     1
 10
-51.70641339044803
 20
11.37935071450144
 11
-52.83885496712185
 21
11.37935071450144
 72
     1
 10
-52.83885496712185
 20
11.37935071450144
 11
-53.05033502059766
 21
10.83839017028356
 72
     1
 10
-53.05033502059766
 20
10.83839017028356
 11
-54.29083943085064
 21
10.83839017028356
 72
     1
 10
-54.29083943085064
 20
10.83839017028356
 11
-52.89288638391133
 21
13.89219969409464
 72
     1
 10
-52.89288638391133
 20
13.89219969409464
 11
-51.65238197365864
 21
13.89219969409464
 72
     1
 10
-51.65238197365864
 20
13.89219969409464
 11
-50.25442892671833
 21
10.83839017028356
 72
     1
 10
-50.25442892671833
 20
10.83839017028356
 11
-51.49493333697225
 21
10.83839017028356
 97
        8
330
12A
330
12B
330
E2
330
12C
330
E1
330
E4
330
129
330
E3
 92
       16
 93
        3
 72
     1
 10
-52.57279941597685
 20
12.05991397980804
 11
-52.27263417878444
 21
12.82772894579475
 72
     1
 10
-52.27263417878444
 20
12.82772894579475
 11
-51.97246894159434
 21
12.05991397980804
 72
     1
 10
-51.97246894159434
 20
12.05991397980804
 11
-52.57279941597685
 21
12.05991397980804
 97
        3
330
E0
330
12E
330
12D
 75
     1
 76
     0
 52
45.0
 41
0.1
 77
     0
 78
     1
 53
45.0
 43
0.0
 44
0.0
 45
-0.0707106781186548
 46
0.0707106781186548
 79
     0
 98
        1
 10
0.0
 20
0.0
  0
HATCH
  5
1AE
330
47
100
AcDbEntity
  8
1
  6
Continuous
 62
     2
100
AcDbHatch
 10
0.0
 20
0.0
 30
0.0
210
0.0
220
0.0
230
1.0
  2
_USER
 70
     0
 71
     1
 91
        2
 92
        1
 93
        8
 72
     1
 10
-51.49493333697225
 20
10.83839017028356
 11
-51.70641339044803
 21
11.37935071450144
 72
     1
 10
-51.70641339044803
 20
11.37935071450144
 11
-52.83885496712185
 21
11.37935071450144
 72
     1
 10
-52.83885496712185
 20
11.37935071450144
 11
-53.05033502059766
 21
10.83839017028356
 72
     1
 10
-53.05033502059766
 20
10.83839017028356
 11
-54.29083943085064
 21
10.83839017028356
 72
     1
 10
-54.29083943085064
 20
10.83839017028356
 11
-52.89288638391133
 21
13.89219969409464
 72
     1
 10
-52.89288638391133
 20
13.89219969409464
 11
-51.65238197365864
 21
13.89219969409464
 72
     1
 10
-51.65238197365864
 20
13.89219969409464
 11
-50.25442892671833
 21
10.83839017028356
 72
     1
 10
-50.25442892671833
 20
10.83839017028356
 11
-51.49493333697225
 21
10.83839017028356
 97
        8
330
12A
330
12B
330
E2
330
12C
330
E1
330
E4
330
129
330
E3
 92
       16
 93
        3
 72
     1
 10
-52.57279941597685
 20
12.05991397980804
 11
-52.27263417878444
 21
12.82772894579475
 72
     1
 10
-52.27263417878444
 20
12.82772894579475
 11
-51.97246894159434
 21
12.05991397980804
 72
     1
 10
-51.97246894159434
 20
12.05991397980804
 11
-52.57279941597685
 21
12.05991397980804
 97
        3
330
E0
330
12E
330
12D
 75
     1
 76
     0
 52
45.0
 41
0.1
 77
     0
 78
     1
 53
45.0
 43
0.0
 44
0.0
 45
-0.0707106781186548
 46
0.0707106781186548
 79
     0
 98
        1
 10
0.0
 20
0.0
  0
HATCH
  5
1AF
330
47
100
AcDbEntity
  8
1
  6
Continuous
 62
     2
100
AcDbHatch
 10
0.0
 20
0.0
 30
0.0
210
0.0
220
0.0
230
1.0
  2
_USER
 70
     0
 71
     1
 91
        1
 92
        1
 93
        4
 72
     1
 10
-49.86398492318634
 20
14.19758064645785
 11
-51.10448933343923
 21
14.19758064645785
 72
     1
 10
-51.10448933343923
 20
14.19758064645785
 11
-51.10448933343923
 21
17.25139017026905
 72
     1
 10
-51.10448933343923
 20
17.25139017026905
 11
-49.86398492318634
 21
17.25139017026905
 72
     1
 10
-49.86398492318634
 20
17.25139017026905
 11
-49.86398492318634
 21
14.19758064645785
 97
        4
330
DD
330
DF
330
12F
330
DE
 75
     1
 76
     0
 52
45.0
 41
0.1
 77
     0
 78
     1
 53
45.0
 43
0.0
 44
0.0
 45
-0.0707106781186548
 46
0.0707106781186548
 79
     0
 98
        1
 10
0.0
 20
0.0
  0
HATCH
  5
1B0
330
47
100
AcDbEntity
  8
1
  6
Continuous
 62
     2
100
AcDbHatch
 10
0.0
 20
0.0
 30
0.0
210
0.0
220
0.0
230
1.0
  2
_USER
 70
     0
 71
     1
 91
        1
 92
        1
 93
        4
 72
     1
 10
-49.86398492318634
 20
14.19758064645785
 11
-51.10448933343923
 21
14.19758064645785
 72
     1
 10
-51.10448933343923
 20
14.19758064645785
 11
-51.10448933343923
 21
17.25139017026905
 72
     1
 10
-51.10448933343923
 20
17.25139017026905
 11
-49.86398492318634
 21
17.25139017026905
 72
     1
 10
-49.86398492318634
 20
17.25139017026905
 11
-49.86398492318634
 21
14.19758064645785
 97
        4
330
DD
330
DF
330
12F
330
DE
 75
     1
 76
     0
 52
45.0
 41
0.1
 77
     0
 78
     1
 53
45.0
 43
0.0
 44
0.0
 45
-0.0707106781186548
 46
0.0707106781186548
 79
     0
 98
        1
 10
0.0
 20
0.0
  0
HATCH
  5
1B1
330
47
100
AcDbEntity
  8
1
  6
Continuous
 62
     2
100
AcDbHatch
 10
0.0
 20
0.0
 30
0.0
210
0.0
220
0.0
230
1.0
  2
_USER
 70
     0
 71
     1
 91
        1
 92
        1
 93
       12
 72
     1
 10
-45.64149875751554
 20
17.25139017026905
 11
-46.94402838828205
 21
15.77843964023285
 72
     1
 10
-46.94402838828205
 20
15.77843964023285
 11
-45.54607534134175
 21
14.19758064645785
 72
     1
 10
-45.54607534134175
 20
14.19758064645785
 11
-46.94879955909005
 21
14.19758064645785
 72
     1
 10
-46.94879955909005
 20
14.19758064645785
 11
-47.64539049715555
 21
14.98531243175157
 72
     1
 10
-47.64539049715555
 20
14.98531243175157
 11
-48.34198143522124
 21
14.19758064645785
 72
     1
 10
-48.34198143522124
 20
14.19758064645785
 11
-49.74470565296946
 21
14.19758064645785
 72
     1
 10
-49.74470565296946
 20
14.19758064645785
 11
-48.34675260602916
 21
15.77843964023285
 72
     1
 10
-48.34675260602916
 20
15.77843964023285
 11
-49.64928223679664
 21
17.25139017026905
 72
     1
 10
-49.64928223679664
 20
17.25139017026905
 11
-48.24655801904734
 21
17.25139017026905
 72
     1
 10
-48.24655801904734
 20
17.25139017026905
 11
-47.64539049715555
 21
16.57156684871356
 72
     1
 10
-47.64539049715555
 20
16.57156684871356
 11
-47.04422297526276
 21
17.25139017026905
 72
     1
 10
-47.04422297526276
 20
17.25139017026905
 11
-45.64149875751554
 21
17.25139017026905
 97
       12
330
D8
330
D7
330
D6
330
133
330
134
330
130
330
131
330
DC
330
DB
330
DA
330
D9
330
132
 75
     1
 76
     0
 52
45.0
 41
0.1
 77
     0
 78
     1
 53
45.0
 43
0.0
 44
0.0
 45
-0.0707106781186548
 46
0.0707106781186548
 79
     0
 98
        1
 10
0.0
 20
0.0
  0
HATCH
  5
1B2
330
47
100
AcDbEntity
  8
1
  6
Continuous
 62
     2
100
AcDbHatch
 10
0.0
 20
0.0
 30
0.0
210
0.0
220
0.0
230
1.0
  2
_USER
 70
     0
 71
     1
 91
        1
 92
        1
 93
       12
 72
     1
 10
-45.64149875751554
 20
17.25139017026905
 11
-46.94402838828205
 21
15.77843964023285
 72
     1
 10
-46.94402838828205
 20
15.77843964023285
 11
-45.54607534134175
 21
14.19758064645785
 72
     1
 10
-45.54607534134175
 20
14.19758064645785
 11
-46.94879955909005
 21
14.19758064645785
 72
     1
 10
-46.94879955909005
 20
14.19758064645785
 11
-47.64539049715555
 21
14.98531243175157
 72
     1
 10
-47.64539049715555
 20
14.98531243175157
 11
-48.34198143522124
 21
14.19758064645785
 72
     1
 10
-48.34198143522124
 20
14.19758064645785
 11
-49.74470565296946
 21
14.19758064645785
 72
     1
 10
-49.74470565296946
 20
14.19758064645785
 11
-48.34675260602916
 21
15.77843964023285
 72
     1
 10
-48.34675260602916
 20
15.77843964023285
 11
-49.64928223679664
 21
17.25139017026905
 72
     1
 10
-49.64928223679664
 20
17.25139017026905
 11
-48.24655801904734
 21
17.25139017026905
 72
     1
 10
-48.24655801904734
 20
17.25139017026905
 11
-47.64539049715555
 21
16.57156684871356
 72
     1
 10
-47.64539049715555
 20
16.57156684871356
 11
-47.04422297526276
 21
17.25139017026905
 72
     1
 10
-47.04422297526276
 20
17.25139017026905
 11
-45.64149875751554
 21
17.25139017026905
 97
       12
330
D8
330
D7
330
D6
330
133
330
134
330
130
330
131
330
DC
330
DB
330
DA
330
D9
330
132
 75
     1
 76
     0
 52
45.0
 41
0.1
 77
     0
 78
     1
 53
45.0
 43
0.0
 44
0.0
 45
-0.0707106781186548
 46
0.0707106781186548
 79
     0
 98
        1
 10
0.0
 20
0.0
  0
HATCH
  5
1B3
330
47
100
AcDbEntity
  8
1
  6
Continuous
 62
     2
100
AcDbHatch
 10
0.0
 20
0.0
 30
0.0
210
0.0
220
0.0
230
1.0
  2
_USER
 70
     0
 71
     1
 91
        2
 92
        1
 93
        6
 72
     1
 10
-64.65923417166155
 20
15.14065888760166
 11
-65.41800175944184
 21
15.14065888760166
 72
     1
 10
-65.41800175944184
 20
15.14065888760166
 11
-65.41800175944184
 21
14.19758064645785
 72
     1
 10
-65.41800175944184
 20
14.19758064645785
 11
-66.65850616969595
 21
14.19758064645785
 72
     1
 10
-66.65850616969595
 20
14.19758064645785
 11
-66.65850616969595
 21
17.25139017026905
 72
     1
 10
-66.65850616969595
 20
17.25139017026905
 11
-64.65923417166155
 21
17.25139017026905
 72
     2
 10
-64.65923417166155
 20
16.19602452893537
 40
1.055365641333712
 50
270.0
 51
450.0
 73
     0
 97
        6
330
100
330
FF
330
10C
330
10B
330
101
330
151
 92
       16
 93
        4
 72
     2
 10
-65.10070669789994
 20
16.23542050015786
 40
0.3528638246711218
 50
270.0
 51
450.0
 73
     1
 72
     1
 10
-65.10070669789994
 20
16.58828432482895
 11
-65.41800175944184
 21
16.58828432482895
 72
     1
 10
-65.41800175944184
 20
16.58828432482895
 11
-65.41800175944184
 21
15.88255667548674
 72
     1
 10
-65.41800175944184
 20
15.88255667548674
 11
-65.10070669789994
 21
15.88255667548674
 97
        4
330
165
330
FD
330
10D
330
FE
 75
     1
 76
     0
 52
45.0
 41
0.1
 77
     0
 78
     1
 53
45.0
 43
0.0
 44
0.0
 45
-0.0707106781186548
 46
0.0707106781186548
 79
     0
 98
        1
 10
0.0
 20
0.0
  0
HATCH
  5
1B4
330
47
100
AcDbEntity
  8
1
  6
Continuous
 62
     2
100
AcDbHatch
 10
0.0
 20
0.0
 30
0.0
210
0.0
220
0.0
230
1.0
  2
_USER
 70
     0
 71
     1
 91
        2
 92
        1
 93
        6
 72
     1
 10
-64.65923417166155
 20
15.14065888760166
 11
-65.41800175944184
 21
15.14065888760166
 72
     1
 10
-65.41800175944184
 20
15.14065888760166
 11
-65.41800175944184
 21
14.19758064645785
 72
     1
 10
-65.41800175944184
 20
14.19758064645785
 11
-66.65850616969595
 21
14.19758064645785
 72
     1
 10
-66.65850616969595
 20
14.19758064645785
 11
-66.65850616969595
 21
17.25139017026905
 72
     1
 10
-66.65850616969595
 20
17.25139017026905
 11
-64.65923417166155
 21
17.25139017026905
 72
     2
 10
-64.65923417166155
 20
16.19602452893537
 40
1.055365641333712
 50
270.0
 51
450.0
 73
     0
 97
        6
330
100
330
FF
330
10C
330
10B
330
101
330
151
 92
       16
 93
        4
 72
     2
 10
-65.10070669789994
 20
16.23542050015786
 40
0.3528638246711218
 50
270.0
 51
450.0
 73
     1
 72
     1
 10
-65.10070669789994
 20
16.58828432482895
 11
-65.41800175944184
 21
16.58828432482895
 72
     1
 10
-65.41800175944184
 20
16.58828432482895
 11
-65.41800175944184
 21
15.88255667548674
 72
     1
 10
-65.41800175944184
 20
15.88255667548674
 11
-65.10070669789994
 21
15.88255667548674
 97
        4
330
165
330
FD
330
10D
330
FE
 75
     1
 76
     0
 52
45.0
 41
0.1
 77
     0
 78
     1
 53
45.0
 43
0.0
 44
0.0
 45
-0.0707106781186548
 46
0.0707106781186548
 79
     0
 98
        1
 10
0.0
 20
0.0
  0
HATCH
  5
1B5
330
47
100
AcDbEntity
  8
1
  6
Continuous
 62
     2
100
AcDbHatch
 10
0.0
 20
0.0
 30
0.0
210
0.0
220
0.0
230
1.0
  2
_USER
 70
     0
 71
     1
 91
        2
 92
        1
 93
        4
 72
     2
 10
-62.10269142330245
 20
11.82671992188605
 40
2.065479772208577
 50
62.45185182430628
 51
117.5481481756661
 73
     1
 72
     2
 10
-62.38363131513574
 20
12.36529493218885
 40
1.458034083651495
 50
117.5481481756626
 51
242.4518518243373
 73
     1
 72
     2
 10
-62.10269142330245
 20
12.90386994249215
 40
2.065479772208502
 50
242.4518518243403
 51
297.5481481756873
 73
     1
 72
     2
 10
-61.82175153146915
 20
12.36529493218885
 40
1.458034083652003
 50
297.548148175701
 51
422.451851824299
 73
     1
 97
        4
330
15D
330
15C
330
15E
330
15B
 92
       16
 93
        4
 72
     2
 10
-62.30243145964886
 20
12.36529493218885
 40
0.7717997786796947
 50
321.8795802028417
 51
398.120419797153
 73
     1
 72
     2
 10
-62.10269142330245
 20
12.52202611030936
 40
0.5179085730133022
 50
38.12041979714608
 51
141.8795802028588
 73
     1
 72
     2
 10
-61.90295138695635
 20
12.36529493218885
 40
0.7717997786794555
 50
141.8795802028362
 51
218.120419797169
 73
     1
 72
     2
 10
-62.10269142330245
 20
12.20856375406885
 40
0.5179085730137287
 50
218.1204197971935
 51
321.8795802028017
 73
     1
 97
        4
330
179
330
176
330
177
330
178
 75
     1
 76
     0
 52
45.0
 41
0.1
 77
     0
 78
     1
 53
45.0
 43
0.0
 44
0.0
 45
-0.0707106781186548
 46
0.0707106781186548
 79
     0
 98
        1
 10
0.0
 20
0.0
  0
HATCH
  5
1B6
330
47
100
AcDbEntity
  8
1
  6
Continuous
 62
     2
100
AcDbHatch
 10
0.0
 20
0.0
 30
0.0
210
0.0
220
0.0
230
1.0
  2
_USER
 70
     0
 71
     1
 91
        2
 92
        1
 93
        4
 72
     2
 10
-62.10269142330245
 20
11.82671992188605
 40
2.065479772208577
 50
62.45185182430628
 51
117.5481481756661
 73
     1
 72
     2
 10
-62.38363131513574
 20
12.36529493218885
 40
1.458034083651495
 50
117.5481481756626
 51
242.4518518243373
 73
     1
 72
     2
 10
-62.10269142330245
 20
12.90386994249215
 40
2.065479772208502
 50
242.4518518243403
 51
297.5481481756873
 73
     1
 72
     2
 10
-61.82175153146915
 20
12.36529493218885
 40
1.458034083652003
 50
297.548148175701
 51
422.451851824299
 73
     1
 97
        4
330
15D
330
15C
330
15E
330
15B
 92
       16
 93
        4
 72
     2
 10
-62.30243145964886
 20
12.36529493218885
 40
0.7717997786796947
 50
321.8795802028417
 51
398.120419797153
 73
     1
 72
     2
 10
-62.10269142330245
 20
12.52202611030936
 40
0.5179085730133022
 50
38.12041979714608
 51
141.8795802028588
 73
     1
 72
     2
 10
-61.90295138695635
 20
12.36529493218885
 40
0.7717997786794555
 50
141.8795802028362
 51
218.120419797169
 73
     1
 72
     2
 10
-62.10269142330245
 20
12.20856375406885
 40
0.5179085730137287
 50
218.1204197971935
 51
321.8795802028017
 73
     1
 97
        4
330
179
330
176
330
177
330
178
 75
     1
 76
     0
 52
45.0
 41
0.1
 77
     0
 78
     1
 53
45.0
 43
0.0
 44
0.0
 45
-0.0707106781186548
 46
0.0707106781186548
 79
     0
 98
        1
 10
0.0
 20
0.0
  0
HATCH
  5
1B7
330
47
100
AcDbEntity
  8
1
  6
Continuous
 62
     2
100
AcDbHatch
 10
0.0
 20
0.0
 30
0.0
210
0.0
220
0.0
230
1.0
  2
_USER
 70
     0
 71
     1
 91
        2
 92
        1
 93
       12
 72
     1
 10
-55.20769622889316
 20
16.55337656482607
 11
-56.54362405532083
 21
16.55337656482607
 72
     1
 10
-56.54362405532083
 20
16.55337656482607
 11
-56.54362405532083
 21
16.07349221108436
 72
     1
 10
-56.54362405532083
 20
16.07349221108436
 11
-55.20769622889316
 21
16.07349221108436
 72
     1
 10
-55.20769622889316
 20
16.07349221108436
 11
-55.20769622889316
 21
15.37547860564206
 72
     1
 10
-55.20769622889316
 20
15.37547860564206
 11
-56.54362405532083
 21
15.37547860564206
 72
     1
 10
-56.54362405532083
 20
15.37547860564206
 11
-56.54362405532083
 21
14.89559425190035
 72
     1
 10
-56.54362405532083
 20
14.89559425190035
 11
-55.20769622889316
 21
14.89559425190035
 72
     1
 10
-55.20769622889316
 20
14.89559425190035
 11
-55.20769622889316
 21
14.19758064645785
 72
     1
 10
-55.20769622889316
 20
14.19758064645785
 11
-58.35801595267415
 21
14.19758064645785
 72
     2
 10
-58.35801595267415
 20
15.72448540836317
 40
1.526904761905881
 50
90.0
 51
270.0
 73
     0
 72
     1
 10
-58.35801595267415
 20
17.25139017026905
 11
-55.20769622889316
 21
17.25139017026905
 72
     1
 10
-55.20769622889316
 20
17.25139017026905
 11
-55.20769622889316
 21
16.55337656482607
 97
       12
330
114
330
166
330
115
330
116
330
117
330
118
330
F5
330
F4
330
F3
330
F2
330
119
330
113
 92
       16
 93
        4
 72
     2
 10
-58.14174394250895
 20
15.88121658648365
 40
0.5179085730135288
 50
38.12041979714365
 51
141.8795802028491
 73
     1
 72
     2
 10
-57.94200390616265
 20
15.72448540836317
 40
0.7717997786796846
 50
141.879580202841
 51
218.120419797156
 73
     1
 72
     2
 10
-58.14174394250895
 20
15.56775423024274
 40
0.5179085730134427
 50
218.1204197971506
 51
321.8795802028566
 73
     1
 72
     2
 10
-58.34148397885514
 20
15.72448540836317
 40
0.7717997786796417
 50
321.8795802028433
 51
398.1204197971597
 73
     1
 97
        4
330
160
330
15F
330
15A
330
159
 75
     1
 76
     0
 52
45.0
 41
0.1
 77
     0
 78
     1
 53
45.0
 43
0.0
 44
0.0
 45
-0.0707106781186548
 46
0.0707106781186548
 79
     0
 98
        1
 10
0.0
 20
0.0
  0
HATCH
  5
1B8
330
47
100
AcDbEntity
  8
1
  6
Continuous
 62
     2
100
AcDbHatch
 10
0.0
 20
0.0
 30
0.0
210
0.0
220
0.0
230
1.0
  2
_USER
 70
     0
 71
     1
 91
        2
 92
        1
 93
       12
 72
     1
 10
-55.20769622889316
 20
16.55337656482607
 11
-56.54362405532083
 21
16.55337656482607
 72
     1
 10
-56.54362405532083
 20
16.55337656482607
 11
-56.54362405532083
 21
16.07349221108436
 72
     1
 10
-56.54362405532083
 20
16.07349221108436
 11
-55.20769622889316
 21
16.07349221108436
 72
     1
 10
-55.20769622889316
 20
16.07349221108436
 11
-55.20769622889316
 21
15.37547860564206
 72
     1
 10
-55.20769622889316
 20
15.37547860564206
 11
-56.54362405532083
 21
15.37547860564206
 72
     1
 10
-56.54362405532083
 20
15.37547860564206
 11
-56.54362405532083
 21
14.89559425190035
 72
     1
 10
-56.54362405532083
 20
14.89559425190035
 11
-55.20769622889316
 21
14.89559425190035
 72
     1
 10
-55.20769622889316
 20
14.89559425190035
 11
-55.20769622889316
 21
14.19758064645785
 72
     1
 10
-55.20769622889316
 20
14.19758064645785
 11
-58.35801595267415
 21
14.19758064645785
 72
     2
 10
-58.35801595267415
 20
15.72448540836317
 40
1.526904761905881
 50
90.0
 51
270.0
 73
     0
 72
     1
 10
-58.35801595267415
 20
17.25139017026905
 11
-55.20769622889316
 21
17.25139017026905
 72
     1
 10
-55.20769622889316
 20
17.25139017026905
 11
-55.20769622889316
 21
16.55337656482607
 97
       12
330
114
330
166
330
115
330
116
330
117
330
118
330
F5
330
F4
330
F3
330
F2
330
119
330
113
 92
       16
 93
        4
 72
     2
 10
-58.14174394250895
 20
15.88121658648365
 40
0.5179085730135288
 50
38.12041979714365
 51
141.8795802028491
 73
     1
 72
     2
 10
-57.94200390616265
 20
15.72448540836317
 40
0.7717997786796846
 50
141.879580202841
 51
218.120419797156
 73
     1
 72
     2
 10
-58.14174394250895
 20
15.56775423024274
 40
0.5179085730134427
 50
218.1204197971506
 51
321.8795802028566
 73
     1
 72
     2
 10
-58.34148397885514
 20
15.72448540836317
 40
0.7717997786796417
 50
321.8795802028433
 51
398.1204197971597
 73
     1
 97
        4
330
160
330
15F
330
15A
330
159
 75
     1
 76
     0
 52
45.0
 41
0.1
 77
     0
 78
     1
 53
45.0
 43
0.0
 44
0.0
 45
-0.0707106781186548
 46
0.0707106781186548
 79
     0
 98
        1
 10
0.0
 20
0.0
  0
HATCH
  5
1B9
330
47
100
AcDbEntity
  8
1
  6
Continuous
 62
     2
100
AcDbHatch
 10
0.0
 20
0.0
 30
0.0
210
0.0
220
0.0
230
1.0
  2
_USER
 70
     0
 71
     1
 91
        4
 92
        1
 93
        8
 72
     1
 10
-67.13562325056276
 20
16.82714555486706
 11
-67.13562325056276
 21
11.26263478566685
 72
     2
 10
-67.55986786594664
 20
11.26263478566685
 40
0.4242446153832891
 50
0.0
 51
90.0
 73
     0
 72
     1
 10
-67.55986786594664
 20
10.83839017028356
 11
-73.03317995666345
 21
10.83839017028356
 72
     2
 10
-73.03317995666345
 20
11.26263478566685
 40
0.4242446153828041
 50
90.0
 51
180.0
 73
     0
 72
     1
 10
-73.45742457204625
 20
11.26263478566685
 11
-73.45742457204625
 21
16.82714555486706
 72
     2
 10
-73.03317995666345
 20
16.82714555486706
 40
0.4242446153838024
 50
180.0
 51
270.0
 73
     0
 72
     1
 10
-73.03317995666345
 20
17.25139017025086
 11
-67.55986786594664
 21
17.25139017025086
 72
     2
 10
-67.55986786594664
 20
16.82714555486706
 40
0.4242446153838841
 50
270.0
 51
360.0
 73
     0
 97
        8
330
108
330
156
330
109
330
161
330
106
330
158
330
107
330
157
 92
       16
 93
        1
 72
     2
 10
-70.41359430614594
 20
14.50826332651155
 40
0.4709789327785074
 50
0.0
 51
360.0
 73
     1
 97
        1
330
17C
 92
       16
 93
        8
 72
     2
 10
-69.86373659338525
 20
13.39912172654314
 40
0.3157169230765344
 50
115.3740086783517
 51
180.0
 73
     1
 72
     1
 10
-70.17945351646205
 20
13.39912172654314
 11
-70.17945351646205
 21
12.81727031984806
 72
     2
 10
-69.86373659338525
 20
12.81727031984806
 40
0.315716923076792
 50
180.0
 51
269.8110329574542
 73
     1
 72
     2
 10
-69.85812045807523
 20
14.52010526741705
 40
2.018561131933266
 50
269.8110329575858
 51
450.1889670424142
 73
     1
 72
     2
 10
-69.86373659338525
 20
16.22294021498615
 40
0.3157169230760746
 50
90.18896704254594
 51
180.0
 73
     1
 72
     1
 10
-70.17945351646205
 20
16.22294021498615
 11
-70.17945351646205
 21
15.61740492647937
 72
     2
 10
-69.86373659338525
 20
15.61740492647937
 40
0.315716923076792
 50
180.0
 51
244.6259913216483
 73
     1
 72
     2
 10
-70.38977929147313
 20
14.50826332651155
 40
0.9118481501444573
 50
295.3740086781924
 51
424.6259913218234
 73
     0
 97
        8
330
16E
330
CF
330
16B
330
16C
330
14A
330
CE
330
16D
330
149
 92
       16
 93
       12
 72
     2
 10
-72.43928527991696
 20
11.86666264891716
 40
0.3157169230756836
 50
180.0
 51
270.0
 73
     1
 72
     1
 10
-72.43928527991696
 20
11.55094572584045
 11
-70.96345201890733
 21
11.55094572584045
 72
     2
 10
-70.96345201890733
 20
11.86666264891716
 40
0.3157169230767103
 50
270.0
 51
360.0
 73
     1
 72
     1
 10
-70.64773509583074
 20
11.86666264891716
 11
-70.64773509583074
 21
13.39743358044876
 72
     2
 10
-70.96345201890733
 20
13.39743358044876
 40
0.315716923076593
 50
0.0
 51
64.80558935146027
 73
     1
 72
     2
 10
-70.44086757133235
 20
14.50826332651155
 40
0.9118975235576194
 50
115.1944106485123
 51
244.8055893514719
 73
     0
 72
     2
 10
-70.96345201890733
 20
15.61909307257375
 40
0.3157169230761203
 50
295.1944106485397
 51
360.0
 73
     1
 72
     1
 10
-70.64773509583074
 20
15.61909307257375
 11
-70.64773509583074
 21
16.22311769163426
 72
     2
 10
-70.96345201890733
 20
16.22311769163426
 40
0.315716923076593
 50
0.0
 51
90.0
 73
     1
 72
     1
 10
-70.96345201890733
 20
16.53883461471045
 11
-72.43928527991696
 21
16.53883461471045
 72
     2
 10
-72.43928527991696
 20
16.22311769163426
 40
0.315716923076188
 50
90.0
 51
180.0
 73
     1
 72
     1
 10
-72.75500220299264
 20
16.22311769163426
 11
-72.75500220299264
 21
11.86666264891716
 97
       12
330
152
330
10A
330
155
330
105
330
162
330
163
330
154
330
104
330
153
330
103
330
164
330
102
 75
     1
 76
     0
 52
45.0
 41
0.1
 77
     0
 78
     1
 53
45.0
 43
0.0
 44
0.0
 45
-0.0707106781186548
 46
0.0707106781186548
 79
     0
 98
        1
 10
0.0
 20
0.0
  0
HATCH
  5
1BA
330
47
100
AcDbEntity
  8
1
  6
Continuous
 62
     2
100
AcDbHatch
 10
0.0
 20
0.0
 30
0.0
210
0.0
220
0.0
230
1.0
  2
_USER
 70
     0
 71
     1
 91
        4
 92
        1
 93
        8
 72
     1
 10
-67.13562325056276
 20
16.82714555486706
 11
-67.13562325056276
 21
11.26263478566685
 72
     2
 10
-67.55986786594664
 20
11.26263478566685
 40
0.4242446153832891
 50
0.0
 51
90.0
 73
     0
 72
     1
 10
-67.55986786594664
 20
10.83839017028356
 11
-73.03317995666345
 21
10.83839017028356
 72
     2
 10
-73.03317995666345
 20
11.26263478566685
 40
0.4242446153828041
 50
90.0
 51
180.0
 73
     0
 72
     1
 10
-73.45742457204625
 20
11.26263478566685
 11
-73.45742457204625
 21
16.82714555486706
 72
     2
 10
-73.03317995666345
 20
16.82714555486706
 40
0.4242446153838024
 50
180.0
 51
270.0
 73
     0
 72
     1
 10
-73.03317995666345
 20
17.25139017025086
 11
-67.55986786594664
 21
17.25139017025086
 72
     2
 10
-67.55986786594664
 20
16.82714555486706
 40
0.4242446153838841
 50
270.0
 51
360.0
 73
     0
 97
        8
330
108
330
156
330
109
330
161
330
106
330
158
330
107
330
157
 92
       16
 93
        1
 72
     2
 10
-70.41359430614594
 20
14.50826332651155
 40
0.4709789327785074
 50
0.0
 51
360.0
 73
     1
 97
        1
330
17C
 92
       16
 93
        8
 72
     2
 10
-69.86373659338525
 20
13.39912172654314
 40
0.3157169230765344
 50
115.3740086783517
 51
180.0
 73
     1
 72
     1
 10
-70.17945351646205
 20
13.39912172654314
 11
-70.17945351646205
 21
12.81727031984806
 72
     2
 10
-69.86373659338525
 20
12.81727031984806
 40
0.315716923076792
 50
180.0
 51
269.8110329574542
 73
     1
 72
     2
 10
-69.85812045807523
 20
14.52010526741705
 40
2.018561131933266
 50
269.8110329575858
 51
450.1889670424142
 73
     1
 72
     2
 10
-69.86373659338525
 20
16.22294021498615
 40
0.3157169230760746
 50
90.18896704254594
 51
180.0
 73
     1
 72
     1
 10
-70.17945351646205
 20
16.22294021498615
 11
-70.17945351646205
 21
15.61740492647937
 72
     2
 10
-69.86373659338525
 20
15.61740492647937
 40
0.315716923076792
 50
180.0
 51
244.6259913216483
 73
     1
 72
     2
 10
-70.38977929147313
 20
14.50826332651155
 40
0.9118481501444573
 50
295.3740086781924
 51
424.6259913218234
 73
     0
 97
        8
330
16E
330
CF
330
16B
330
16C
330
14A
330
CE
330
16D
330
149
 92
       16
 93
       12
 72
     2
 10
-72.43928527991696
 20
11.86666264891716
 40
0.3157169230756836
 50
180.0
 51
270.0
 73
     1
 72
     1
 10
-72.43928527991696
 20
11.55094572584045
 11
-70.96345201890733
 21
11.55094572584045
 72
     2
 10
-70.96345201890733
 20
11.86666264891716
 40
0.3157169230767103
 50
270.0
 51
360.0
 73
     1
 72
     1
 10
-70.64773509583074
 20
11.86666264891716
 11
-70.64773509583074
 21
13.39743358044876
 72
     2
 10
-70.96345201890733
 20
13.39743358044876
 40
0.315716923076593
 50
0.0
 51
64.80558935146027
 73
     1
 72
     2
 10
-70.44086757133235
 20
14.50826332651155
 40
0.9118975235576194
 50
115.1944106485123
 51
244.8055893514719
 73
     0
 72
     2
 10
-70.96345201890733
 20
15.61909307257375
 40
0.3157169230761203
 50
295.1944106485397
 51
360.0
 73
     1
 72
     1
 10
-70.64773509583074
 20
15.61909307257375
 11
-70.64773509583074
 21
16.22311769163426
 72
     2
 10
-70.96345201890733
 20
16.22311769163426
 40
0.315716923076593
 50
0.0
 51
90.0
 73
     1
 72
     1
 10
-70.96345201890733
 20
16.53883461471045
 11
-72.43928527991696
 21
16.53883461471045
 72
     2
 10
-72.43928527991696
 20
16.22311769163426
 40
0.315716923076188
 50
90.0
 51
180.0
 73
     1
 72
     1
 10
-72.75500220299264
 20
16.22311769163426
 11
-72.75500220299264
 21
11.86666264891716
 97
       12
330
152
330
10A
330
155
330
105
330
162
330
163
330
154
330
104
330
153
330
103
330
164
330
102
 75
     1
 76
     0
 52
45.0
 41
0.1
 77
     0
 78
     1
 53
45.0
 43
0.0
 44
0.0
 45
-0.0707106781186548
 46
0.0707106781186548
 79
     0
 98
        1
 10
0.0
 20
0.0
  0
HATCH
  5
1BB
330
47
100
AcDbEntity
  8
1
  6
Continuous
 62
     2
100
AcDbHatch
 10
0.0
 20
0.0
 30
0.0
210
0.0
220
0.0
230
1.0
  2
_USER
 70
     0
 71
     1
 91
        1
 92
        1
 93
       18
 72
     1
 10
-45.54607534134175
 20
13.10693438797105
 11
-46.35717437881513
 21
13.10693438797105
 72
     1
 10
-46.35717437881513
 20
13.10693438797105
 11
-46.35717437881513
 21
10.83839017028356
 72
     1
 10
-46.35717437881513
 20
10.83839017028356
 11
-47.54996708098284
 21
10.83839017028356
 72
     1
 10
-47.54996708098284
 20
10.83839017028356
 11
-47.54996708098284
 21
13.10693438797105
 72
     1
 10
-47.54996708098284
 20
13.10693438797105
 11
-48.65360638055094
 21
13.10693438797105
 72
     2
 10
-48.65360638055094
 20
12.15241138114496
 40
0.9545230068260899
 50
90.0
 51
109.337143219432
 73
     1
 72
     2
 10
-48.80027637865464
 20
12.57036636152785
 40
0.5115800601944133
 50
109.3371432194862
 51
151.478526742423
 73
     1
 72
     2
 10
-48.42291912057326
 20
12.36529493218885
 40
0.9410597353348853
 50
151.4785267423623
 51
208.5214732576697
 73
     1
 72
     2
 10
-48.80027637865464
 20
12.16022350285036
 40
0.5115800601960279
 50
208.5214732576862
 51
246.6277221118444
 73
     1
 72
     2
 10
-48.64383634595154
 20
12.52221552156036
 40
0.9059297849852865
 50
246.6277221118184
 51
288.4480761180816
 73
     1
 72
     2
 10
-49.06200407961345
 20
13.77576129759694
 40
2.227384008972748
 50
288.4480761181337
 51
301.9309089499399
 73
     1
 72
     1
 10
-47.88394903758953
 20
11.88541057844716
 11
-47.88394903758953
 21
11.01289357164384
 72
     2
 10
-49.21987695470625
 20
15.67797587744525
 40
4.852596863498824
 50
74.02000874166134
 51
84.84185523036375
 73
     0
 72
     2
 10
-48.93102085997043
 20
12.47808529422366
 40
1.639695123940456
 50
84.84185523032401
 51
164.9381082228988
 73
     0
 72
     2
 10
-49.35014870343204
 20
12.36529493218885
 40
1.205656168393009
 50
164.9381082229039
 51
195.061891777097
 73
     0
 72
     2
 10
-48.93102085997043
 20
12.25250457015395
 40
1.639695123940209
 50
195.0618917771049
 51
270.0
 73
     0
 72
     1
 10
-48.93102085997043
 20
13.89219969409416
 11
-45.54607534134175
 21
13.89219969409464
 72
     1
 10
-45.54607534134175
 20
13.89219969409464
 11
-45.54607534134175
 21
13.10693438797105
 97
       18
330
D1
330
167
330
168
330
150
330
14F
330
135
330
14E
330
14D
330
169
330
14C
330
16A
330
14B
330
136
330
D0
330
D5
330
D4
330
D3
330
D2
 75
     1
 76
     0
 52
45.0
 41
0.1
 77
     0
 78
     1
 53
45.0
 43
0.0
 44
0.0
 45
-0.0707106781186548
 46
0.0707106781186548
 79
     0
 98
        1
 10
0.0
 20
0.0
  0
HATCH
  5
1BC
330
47
100
AcDbEntity
  8
1
  6
Continuous
 62
     2
100
AcDbHatch
 10
0.0
 20
0.0
 30
0.0
210
0.0
220
0.0
230
1.0
  2
_USER
 70
     0
 71
     1
 91
        1
 92
        1
 93
       18
 72
     1
 10
-45.54607534134175
 20
13.10693438797105
 11
-46.35717437881513
 21
13.10693438797105
 72
     1
 10
-46.35717437881513
 20
13.10693438797105
 11
-46.35717437881513
 21
10.83839017028356
 72
     1
 10
-46.35717437881513
 20
10.83839017028356
 11
-47.54996708098284
 21
10.83839017028356
 72
     1
 10
-47.54996708098284
 20
10.83839017028356
 11
-47.54996708098284
 21
13.10693438797105
 72
     1
 10
-47.54996708098284
 20
13.10693438797105
 11
-48.65360638055094
 21
13.10693438797105
 72
     2
 10
-48.65360638055094
 20
12.15241138114496
 40
0.9545230068260899
 50
90.0
 51
109.337143219432
 73
     1
 72
     2
 10
-48.80027637865464
 20
12.57036636152785
 40
0.5115800601944133
 50
109.3371432194862
 51
151.478526742423
 73
     1
 72
     2
 10
-48.42291912057326
 20
12.36529493218885
 40
0.9410597353348853
 50
151.4785267423623
 51
208.5214732576697
 73
     1
 72
     2
 10
-48.80027637865464
 20
12.16022350285036
 40
0.5115800601960279
 50
208.5214732576862
 51
246.6277221118444
 73
     1
 72
     2
 10
-48.64383634595154
 20
12.52221552156036
 40
0.9059297849852865
 50
246.6277221118184
 51
288.4480761180816
 73
     1
 72
     2
 10
-49.06200407961345
 20
13.77576129759694
 40
2.227384008972748
 50
288.4480761181337
 51
301.9309089499399
 73
     1
 72
     1
 10
-47.88394903758953
 20
11.88541057844716
 11
-47.88394903758953
 21
11.01289357164384
 72
     2
 10
-49.21987695470625
 20
15.67797587744525
 40
4.852596863498824
 50
74.02000874166134
 51
84.84185523036375
 73
     0
 72
     2
 10
-48.93102085997043
 20
12.47808529422366
 40
1.639695123940456
 50
84.84185523032401
 51
164.9381082228988
 73
     0
 72
     2
 10
-49.35014870343204
 20
12.36529493218885
 40
1.205656168393009
 50
164.9381082229039
 51
195.061891777097
 73
     0
 72
     2
 10
-48.93102085997043
 20
12.25250457015395
 40
1.639695123940209
 50
195.0618917771049
 51
270.0
 73
     0
 72
     1
 10
-48.93102085997043
 20
13.89219969409416
 11
-45.54607534134175
 21
13.89219969409464
 72
     1
 10
-45.54607534134175
 20
13.89219969409464
 11
-45.54607534134175
 21
13.10693438797105
 97
       18
330
D1
330
167
330
168
330
150
330
14F
330
135
330
14E
330
14D
330
169
330
14C
330
16A
330
14B
330
136
330
D0
330
D5
330
D4
330
D3
330
D2
 75
     1
 76
     0
 52
45.0
 41
0.1
 77
     0
 78
     1
 53
45.0
 43
0.0
 44
0.0
 45
-0.0707106781186548
 46
0.0707106781186548
 79
     0
 98
        1
 10
0.0
 20
0.0
  0
HATCH
  5
1BD
330
47
100
AcDbEntity
  8
1
  6
Continuous
 62
     2
100
AcDbHatch
 10
0.0
 20
0.0
 30
0.0
210
0.0
220
0.0
230
1.0
  2
_USER
 70
     0
 71
     1
 91
        1
 92
        1
 93
       14
 72
     2
 10
-65.03372233922335
 20
12.25250457015395
 40
1.639695123940505
 50
84.84185523036236
 51
164.9381082228866
 73
     1
 72
     2
 10
-65.45285018268615
 20
12.36529493218885
 40
1.205656168390943
 50
164.9381082228765
 51
195.0618917770949
 73
     1
 72
     2
 10
-65.03372233922335
 20
12.47808529422366
 40
1.639695123939387
 50
195.0618917770895
 51
275.1581447696395
 73
     1
 72
     2
 10
-65.32257843395925
 20
15.67797587744525
 40
4.852596863498136
 50
275.1581447696249
 51
285.9799912583529
 73
     1
 72
     1
 10
-63.98665051684145
 20
11.01289357164444
 11
-63.98665051684145
 21
11.88541057844765
 72
     2
 10
-65.16470555886633
 20
13.77576129759754
 40
2.227384008972739
 50
58.0690910500407
 51
71.55192388186722
 73
     0
 72
     2
 10
-64.74653782520554
 20
12.52221552156036
 40
0.9059297849849257
 50
71.55192388184167
 51
113.3722778881288
 73
     0
 72
     2
 10
-64.90297785790756
 20
12.16022350285036
 40
0.5115800601948042
 50
113.3722778881724
 51
151.4785267423043
 73
     0
 72
     2
 10
-64.52562059982725
 20
12.36529493218885
 40
0.9410597353332545
 50
151.4785267422942
 51
208.5214732577331
 73
     0
 72
     2
 10
-64.90297785790756
 20
12.57036636152785
 40
0.5115800601948713
 50
208.5214732576956
 51
246.6277221118006
 73
     0
 72
     2
 10
-64.74653782520554
 20
12.20837434281725
 40
0.9059297849853228
 50
246.627722111871
 51
288.4480761181466
 73
     0
 72
     2
 10
-65.16470555886633
 20
10.95482856678066
 40
2.227384008973482
 50
288.4480761181328
 51
301.9309089499592
 73
     0
 72
     1
 10
-63.98665051684145
 20
12.84517928593056
 11
-63.98665051684145
 21
13.71769629273385
 72
     2
 10
-65.32257843395925
 20
9.052613986932954
 40
4.85259686349807
 50
74.02000874164739
 51
84.84185523037506
 73
     1
 97
       14
330
16F
330
170
330
171
330
172
330
137
330
148
330
147
330
146
330
173
330
174
330
145
330
175
330
138
330
144
 75
     1
 76
     0
 52
45.0
 41
0.1
 77
     0
 78
     1
 53
45.0
 43
0.0
 44
0.0
 45
-0.0707106781186548
 46
0.0707106781186548
 79
     0
 98
        1
 10
0.0
 20
0.0
  0
HATCH
  5
1BE
330
47
100
AcDbEntity
  8
1
  6
Continuous
 62
     2
100
AcDbHatch
 10
0.0
 20
0.0
 30
0.0
210
0.0
220
0.0
230
1.0
  2
_USER
 70
     0
 71
     1
 91
        1
 92
        1
 93
       14
 72
     2
 10
-65.03372233922335
 20
12.25250457015395
 40
1.639695123940505
 50
84.84185523036236
 51
164.9381082228866
 73
     1
 72
     2
 10
-65.45285018268615
 20
12.36529493218885
 40
1.205656168390943
 50
164.9381082228765
 51
195.0618917770949
 73
     1
 72
     2
 10
-65.03372233922335
 20
12.47808529422366
 40
1.639695123939387
 50
195.0618917770895
 51
275.1581447696395
 73
     1
 72
     2
 10
-65.32257843395925
 20
15.67797587744525
 40
4.852596863498136
 50
275.1581447696249
 51
285.9799912583529
 73
     1
 72
     1
 10
-63.98665051684145
 20
11.01289357164444
 11
-63.98665051684145
 21
11.88541057844765
 72
     2
 10
-65.16470555886633
 20
13.77576129759754
 40
2.227384008972739
 50
58.0690910500407
 51
71.55192388186722
 73
     0
 72
     2
 10
-64.74653782520554
 20
12.52221552156036
 40
0.9059297849849257
 50
71.55192388184167
 51
113.3722778881288
 73
     0
 72
     2
 10
-64.90297785790756
 20
12.16022350285036
 40
0.5115800601948042
 50
113.3722778881724
 51
151.4785267423043
 73
     0
 72
     2
 10
-64.52562059982725
 20
12.36529493218885
 40
0.9410597353332545
 50
151.4785267422942
 51
208.5214732577331
 73
     0
 72
     2
 10
-64.90297785790756
 20
12.57036636152785
 40
0.5115800601948713
 50
208.5214732576956
 51
246.6277221118006
 73
     0
 72
     2
 10
-64.74653782520554
 20
12.20837434281725
 40
0.9059297849853228
 50
246.627722111871
 51
288.4480761181466
 73
     0
 72
     2
 10
-65.16470555886633
 20
10.95482856678066
 40
2.227384008973482
 50
288.4480761181328
 51
301.9309089499592
 73
     0
 72
     1
 10
-63.98665051684145
 20
12.84517928593056
 11
-63.98665051684145
 21
13.71769629273385
 72
     2
 10
-65.32257843395925
 20
9.052613986932954
 40
4.85259686349807
 50
74.02000874164739
 51
84.84185523037506
 73
     1
 97
       14
330
16F
330
170
330
171
330
172
330
137
330
148
330
147
330
146
330
173
330
174
330
145
330
175
330
138
330
144
 75
     1
 76
     0
 52
45.0
 41
0.1
 77
     0
 78
     1
 53
45.0
 43
0.0
 44
0.0
 45
-0.0707106781186548
 46
0.0707106781186548
 79
     0
 98
        1
 10
0.0
 20
0.0
  0
ENDBLK
  5
49
330
47
100
AcDbEntity
  8
0
100
AcDbBlockEnd
  0
BLOCK
  5
4B
330
4A
100
AcDbEntity
  8
0
100
AcDbBlockBegin
  2
_punkt
 70
     0
 10
51.85072506814116
 20
3.54489017026725
 30
0.0
  3
_punkt
  1

  0
LINE
  5
1BF
330
4A
100
AcDbEntity
  8
1
  6
Continuous
 62
     2
100
AcDbLine
 10
51.85072506814116
 20
3.54489017026725
 30
0.0
 11
56.85072506814015
 21
3.54489017026725
 31
0.0
  0
LINE
  5
1C0
330
4A
100
AcDbEntity
  8
1
  6
Continuous
 62
     2
100
AcDbLine
 10
51.85072506814116
 20
3.54489017026725
 30
0.0
 11
51.85072506814116
 21
-1.45510982973286
 31
0.0
  0
ENDBLK
  5
4C
330
4A
100
AcDbEntity
  8
0
100
AcDbBlockEnd
  0
BLOCK
  5
50
330
4D
100
AcDbEntity
  8
0
100
AcDbBlockBegin
  2
A4I_CS
 70
     0
 10
51.85072506814116
 20
-1.45510982973286
 30
0.0
  3
A4I_CS
  1

  0
INSERT
  5
4E
330
4D
100
AcDbEntity
  8
1
100
AcDbBlockReference
  2
_rahmen
 10
51.85072506814116
 20
-1.45510982973286
 30
0.0
  0
INSERT
  5
4F
330
4D
100
AcDbEntity
  8
1
100
AcDbBlockReference
  2
_punkt
 10
51.85072506814116
 20
3.54489017026725
 30
0.0
  0
ENDBLK
  5
51
330
4D
100
AcDbEntity
  8
0
100
AcDbBlockEnd
  0
BLOCK
  5
53
330
52
100
AcDbEntity
  8
0
100
AcDbBlockBegin
  2
D_UT_2_5_4_TWIN-select__1
 70
     0
 10
-25.14512134194456
 20
54.35832213543913
 30
0.0
  3
D_UT_2_5_4_TWIN-select__1
  1

  0
LINE
  5
1C1
330
52
100
AcDbEntity
  8
0
  6
Continuous
 62
     7
100
AcDbLine
 10
24.04512159301154
 20
56.52686387920612
 30
0.0
 11
24.04512159301154
 21
60.50291048028947
 31
0.0
  0
LINE
  5
1C2
330
52
100
AcDbEntity
  8
0
  6
Continuous
 62
     7
100
AcDbLine
 10
25.14512159301174
 20
57.47949182336915
 30
0.0
 11
24.04512159301154
 21
56.52686387920612
 31
0.0
  0
LINE
  5
1C3
330
52
100
AcDbEntity
  8
0
  6
Continuous
 62
     7
100
AcDbLine
 10
16.53307263593476
 20
54.35832213543913
 30
0.0
 11
24.04512159301154
 21
56.52686387920612
 31
0.0
  0
LINE
  5
1C4
330
52
100
AcDbEntity
  8
0
  6
Continuous
 62
     7
100
AcDbLine
 10
25.14512159301165
 20
61.4555384244524
 30
0.0
 11
25.14512159301174
 21
57.47949182336915
 31
0.0
  0
LINE
  5
1C5
330
52
100
AcDbEntity
  8
0
  6
Continuous
 62
     7
100
AcDbLine
 10
25.14512159301165
 20
61.4555384244524
 30
0.0
 11
24.04512159301154
 21
60.50291048028947
 31
0.0
  0
LINE
  5
1C6
330
52
100
AcDbEntity
  8
0
  6
Continuous
 62
     2
100
AcDbLine
 10
23.19656443449634
 20
72.55146735334448
 30
0.0
 11
22.09656443449626
 21
71.59883940918152
 31
0.0
  0
LINE
  5
1C7
330
52
100
AcDbEntity
  8
0
  6
Continuous
 62
     7
100
AcDbLine
 10
22.09656443449626
 20
76.91477418602439
 30
0.0
 11
22.09656443449626
 21
71.59883940918152
 31
0.0
  0
LINE
  5
1C8
330
52
100
AcDbEntity
  8
0
  6
Continuous
 62
     7
100
AcDbLine
 10
23.19656443449634
 20
72.55146735334448
 30
0.0
 11
23.19656443449625
 21
77.8674021301873
 31
0.0
  0
LINE
  5
1C9
330
52
100
AcDbEntity
  8
0
  6
Continuous
 62
     7
100
AcDbLine
 10
23.19656443449625
 20
77.8674021301873
 30
0.0
 11
22.09656443449626
 21
76.91477418602439
 31
0.0
  0
LINE
  5
1CA
330
52
100
AcDbEntity
  8
0
  6
Continuous
 62
     7
100
AcDbLine
 10
22.09656443449626
 20
76.91477418602439
 30
0.0
 11
23.00589110846994
 21
77.95092726293731
 31
0.0
  0
LINE
  5
1CB
330
52
100
AcDbEntity
  8
0
  6
Continuous
 62
     7
100
AcDbLine
 10
24.10589110846993
 20
78.90355520710023
 30
0.0
 11
23.19656443449625
 21
77.8674021301873
 31
0.0
  0
LINE
  5
1CC
330
52
100
AcDbEntity
  8
0
  6
Continuous
 62
     7
100
AcDbLine
 10
16.13845739365135
 20
90.21021940645846
 30
0.0
 11
-15.03845714258506
 21
99.2102194064575
 31
0.0
  0
LINE
  5
1CD
330
52
100
AcDbEntity
  8
0
  6
Continuous
 62
     7
100
AcDbLine
 10
-16.13845714258505
 20
98.25759146229461
 30
0.0
 11
15.03845739365144
 21
89.25759146229557
 31
0.0
  0
LINE
  5
1CE
330
52
100
AcDbEntity
  8
0
  6
Continuous
 62
     7
100
AcDbLine
 10
-25.14512134194456
 20
74.68085383121353
 30
0.0
 11
-25.14512134194456
 21
70.72686387920612
 31
0.0
  0
LINE
  5
1CF
330
52
100
AcDbEntity
  8
0
  6
Continuous
 62
     7
100
AcDbLine
 10
-22.33053877964545
 20
84.54323673455205
 30
0.0
 11
-22.33053877964545
 21
88.5029617318216
 31
0.0
  0
LINE
  5
1D0
330
52
100
AcDbEntity
  8
0
  6
Continuous
 62
     7
100
AcDbLine
 10
-22.33053877964545
 20
88.5029617318216
 30
0.0
 11
-24.10589085740355
 21
91.55092726293732
 31
0.0
  0
LINE
  5
1D1
330
52
100
AcDbEntity
  8
0
  6
Continuous
 62
     7
100
AcDbLine
 10
-24.10589085740355
 20
91.55092726293732
 30
0.0
 11
-24.10589085740355
 21
92.59015774747476
 31
0.0
  0
LINE
  5
1D2
330
52
100
AcDbEntity
  8
0
  6
Continuous
 62
     7
100
AcDbLine
 10
-24.10589085740355
 20
92.59015774747476
 30
0.0
 11
-23.00589085740356
 21
93.54278569163768
 31
0.0
  0
LINE
  5
1D3
330
52
100
AcDbEntity
  8
0
  6
Continuous
 62
     7
100
AcDbLine
 10
-16.13845714258505
 20
98.25759146229461
 30
0.0
 11
-15.03845714258506
 21
99.2102194064575
 31
0.0
  0
LINE
  5
1D4
330
52
100
AcDbEntity
  8
0
  6
Continuous
 62
     7
100
AcDbLine
 10
-15.03845714258506
 20
99.2102194064575
 30
0.0
 11
-23.00589085740356
 21
93.54278569163768
 31
0.0
  0
LINE
  5
1D5
330
52
100
AcDbEntity
  8
0
  6
Continuous
 62
     7
100
AcDbLine
 10
-24.10589085740355
 20
92.59015774747476
 30
0.0
 11
-16.13845714258505
 21
98.25759146229461
 31
0.0
  0
LINE
  5
1D6
330
52
100
AcDbEntity
  8
0
  6
Continuous
 62
     7
100
AcDbLine
 10
-17.63307238486766
 20
64.22123864790515
 30
0.0
 11
-25.14512134194456
 21
70.72686387920612
 31
0.0
  0
LINE
  5
1D7
330
52
100
AcDbEntity
  8
0
  6
Continuous
 62
     7
100
AcDbLine
 10
23.00589110846994
 20
77.95092726293731
 30
0.0
 11
24.10589110846993
 21
78.90355520710023
 31
0.0
  0
LINE
  5
1D8
330
52
100
AcDbEntity
  8
0
  6
Continuous
 62
     7
100
AcDbLine
 10
23.00589110846994
 20
77.95092726293731
 30
0.0
 11
23.00589110846994
 21
78.99015774747477
 31
0.0
  0
LINE
  5
1D9
330
52
100
AcDbEntity
  8
0
  6
Continuous
 62
     7
100
AcDbLine
 10
23.00589110846994
 20
78.99015774747477
 30
0.0
 11
15.03845739365144
 21
89.25759146229557
 31
0.0
  0
LINE
  5
1DA
330
52
100
AcDbEntity
  8
0
  6
Continuous
 62
     7
100
AcDbLine
 10
15.03845739365144
 20
89.25759146229557
 30
0.0
 11
16.13845739365135
 21
90.21021940645846
 31
0.0
  0
LINE
  5
1DB
330
52
100
AcDbEntity
  8
0
  6
Continuous
 62
     7
100
AcDbLine
 10
24.10589110846993
 20
79.94278569163768
 30
0.0
 11
24.10589110846993
 21
78.90355520710023
 31
0.0
  0
LINE
  5
1DC
330
52
100
AcDbEntity
  8
0
  6
Continuous
 62
     7
100
AcDbLine
 10
23.00589110846994
 20
78.99015774747477
 30
0.0
 11
24.10589110846993
 21
79.94278569163768
 31
0.0
  0
LINE
  5
1DD
330
52
100
AcDbEntity
  8
0
  6
Continuous
 62
     7
100
AcDbLine
 10
24.10589110846993
 20
79.94278569163768
 30
0.0
 11
16.13845739365135
 21
90.21021940645846
 31
0.0
  0
LINE
  5
1DE
330
52
100
AcDbEntity
  8
0
  6
Continuous
 62
     7
100
AcDbLine
 10
16.53307263593476
 20
54.35832213543913
 30
0.0
 11
-17.63307238486766
 21
64.22123864790515
 31
0.0
  0
SPLINE
  5
1DF
330
52
100
AcDbEntity
  8
0
  6
Continuous
 62
     7
100
AcDbSpline
210
0.0
220
0.0
230
1.0
 70
     8
 71
     3
 72
    11
 73
     7
 74
     5
 42
0.000000001
 43
0.0000000001
 44
0.00000001
 40
0.0
 40
0.0
 40
0.0
 40
0.0
 40
2.727579608354733
 40
5.524990496264249
 40
8.388923027270385
 40
11.31414610195548
 40
11.31414610195548
 40
11.31414610195548
 40
11.31414610195548
 10
22.09656443449626
 20
71.59883940918152
 30
0.0
 10
22.12075027817019
 20
70.68931741774364
 30
0.0
 10
22.16974118463175
 20
68.84698792482092
 30
0.0
 10
22.55879378433296
 20
66.07311918961383
 30
0.0
 10
23.15637034096802
 20
63.2702069517998
 30
0.0
 10
23.74678756286156
 20
61.43183034681093
 30
0.0
 10
24.04512159301154
 20
60.50291048028947
 30
0.0
 11
22.09656443449626
 21
71.59883940918152
 31
0.0
 11
22.21963088338612
 21
68.87403754998466
 31
0.0
 11
22.58780144733075
 21
66.10096017697597
 31
0.0
 11
23.1979986041124
 21
63.30278774185829
 31
0.0
 11
24.04512159301154
 21
60.50291048028947
 31
0.0
  0
SPLINE
  5
1E0
330
52
100
AcDbEntity
  8
0
  6
Continuous
 62
     7
100
AcDbSpline
210
0.0
220
0.0
230
1.0
 70
     8
 71
     3
 72
    11
 73
     7
 74
     5
 42
0.000000001
 43
0.0000000001
 44
0.00000001
 40
0.0
 40
0.0
 40
0.0
 40
0.0
 40
2.727579608354744
 40
5.524990496264265
 40
8.388923027270415
 40
11.31414610195553
 40
11.31414610195553
 40
11.31414610195553
 40
11.31414610195553
 10
23.19656443449634
 20
72.55146735334448
 30
0.0
 10
23.22075027817024
 20
71.64194536190656
 30
0.0
 10
23.26974118463173
 20
69.79961586898386
 30
0.0
 10
23.65879378433302
 20
67.02574713377676
 30
0.0
 10
24.2563703409681
 20
64.22283489596272
 30
0.0
 10
24.84678756286165
 20
62.38445829097386
 30
0.0
 10
25.14512159301165
 20
61.4555384244524
 30
0.0
 11
23.19656443449634
 21
72.55146735334448
 31
0.0
 11
23.31963088338613
 21
69.8266654941476
 31
0.0
 11
23.6878014473308
 21
67.05358812113892
 31
0.0
 11
24.29799860411249
 21
64.25541568602122
 31
0.0
 11
25.14512159301165
 21
61.4555384244524
 31
0.0
  0
SPLINE
  5
1E1
330
52
100
AcDbEntity
  8
0
  6
Continuous
 62
     7
100
AcDbSpline
210
0.0
220
0.0
230
1.0
 70
     8
 71
     3
 72
    11
 73
     7
 74
     5
 42
0.000000001
 43
0.0000000001
 44
0.00000001
 40
0.0
 40
0.0
 40
0.0
 40
0.0
 40
2.47764973607289
 40
5.025895604122637
 40
7.663060199386661
 40
10.40012321972835
 40
10.40012321972835
 40
10.40012321972835
 40
10.40012321972835
 10
-25.14512134194456
 20
74.68085383121353
 30
0.0
 10
-24.71465062295907
 20
75.38798629500246
 30
0.0
 10
-23.84144371632773
 20
76.82239968583225
 30
0.0
 10
-22.98376214830249
 20
79.24398743576818
 30
0.0
 10
-22.42786834468838
 20
81.83634637433957
 30
0.0
 10
-22.36338153239982
 20
83.62982728583185
 30
0.0
 10
-22.33053877964545
 20
84.54323673455205
 30
0.0
 11
-25.14512134194456
 21
74.68085383121353
 31
0.0
 11
-23.92921442125808
 21
76.83963093410613
 31
0.0
 11
-23.04600609370105
 21
79.22992381628066
 31
0.0
 11
-22.51015071206436
 21
81.81207333169849
 31
0.0
 11
-22.33053877964545
 21
84.54323673455205
 31
0.0
  0
ENDBLK
  5
54
330
52
100
AcDbEntity
  8
0
100
AcDbBlockEnd
  0
BLOCK
  5
57
330
55
100
AcDbEntity
  8
0
100
AcDbBlockBegin
  2
AllgSicht1
 70
     0
 10
-0.00000000005605
 20
76.99999999995589
 30
0.0
  3
AllgSicht1
  1

  0
INSERT
  5
56
330
55
100
AcDbEntity
  8
0
100
AcDbBlockReference
  2
D_UT_2_5_4_TWIN-select__1
 10
-25.14512134194456
 20
54.35832213543913
 30
0.0
  0
MTEXT
  5
1E2
330
55
100
AcDbEntity
  8
1
 62
     6
100
AcDbMText
 10
-0.00000000005605
 20
47.1897807887608
 30
0.0
 40
5.0
 41
0.0
 71
     2
 72
     1
  1
 
  7
CONVERTER_11
 73
     1
 44
1.32052821128451
  0
ENDBLK
  5
58
330
55
100
AcDbEntity
  8
0
100
AcDbBlockEnd
  0
BLOCK
  5
5A
330
59
100
AcDbEntity
  8
0
100
AcDbBlockBegin
  2
D_UT_2_5_4_TWIN-select__2
 70
     0
 10
-173.3999998688117
 20
92.90000002384193
 30
0.0
  3
D_UT_2_5_4_TWIN-select__2
  1

  0
LINE
  5
1E3
330
59
100
AcDbEntity
  8
0
  6
Continuous
 62
     7
100
AcDbLine
 10
-117.7999998688121
 20
95.10000002384197
 30
0.0
 11
-126.999999868814
 21
95.10000002384189
 31
0.0
  0
LINE
  5
1E4
330
59
100
AcDbEntity
  8
0
  6
Continuous
 62
     7
100
AcDbLine
 10
-126.999999868814
 20
95.10000002384189
 30
0.0
 11
-162.9999998688101
 21
95.10000002384189
 31
0.0
  0
LINE
  5
1E5
330
59
100
AcDbEntity
  8
0
  6
Continuous
 62
     7
100
AcDbLine
 10
-117.7999998688121
 20
95.10000002384197
 30
0.0
 11
-116.5999998688117
 21
95.10000002384207
 31
0.0
  0
LINE
  5
1E6
330
59
100
AcDbEntity
  8
0
  6
Continuous
 62
     7
100
AcDbLine
 10
-162.9999998688101
 20
95.10000002384189
 30
0.0
 11
-172.1999998688121
 21
95.10000002384197
 31
0.0
  0
LINE
  5
1E7
330
59
100
AcDbEntity
  8
0
  6
Continuous
 62
     7
100
AcDbLine
 10
-162.9999998688102
 20
92.90000002384193
 30
0.0
 11
-162.9999998688101
 21
95.10000002384189
 31
0.0
  0
LINE
  5
1E8
330
59
100
AcDbEntity
  8
0
  6
Continuous
 62
     7
100
AcDbLine
 10
-117.7999998688121
 20
92.90000002384193
 30
0.0
 11
-117.7999998688121
 21
95.10000002384197
 31
0.0
  0
LINE
  5
1E9
330
59
100
AcDbEntity
  8
0
  6
Continuous
 62
     7
100
AcDbLine
 10
-116.5999998688117
 20
95.10000002384207
 30
0.0
 11
-116.5999998688117
 21
92.90000002384193
 31
0.0
  0
LINE
  5
1EA
330
59
100
AcDbEntity
  8
0
  6
Continuous
 62
     7
100
AcDbLine
 10
-126.9999998688139
 20
92.90000002384193
 30
0.0
 11
-126.999999868814
 21
95.10000002384189
 31
0.0
  0
LINE
  5
1EB
330
59
100
AcDbEntity
  8
0
  6
Continuous
 62
     7
100
AcDbLine
 10
-173.3999998688117
 20
92.90000002384193
 30
0.0
 11
-172.1999998688121
 21
92.90000002384193
 31
0.0
  0
LINE
  5
1EC
330
59
100
AcDbEntity
  8
0
  6
Continuous
 62
     7
100
AcDbLine
 10
-172.1999998688121
 20
92.90000002384193
 30
0.0
 11
-162.9999998688102
 21
92.90000002384193
 31
0.0
  0
LINE
  5
1ED
330
59
100
AcDbEntity
  8
0
  6
Continuous
 62
     7
100
AcDbLine
 10
-117.7999998688121
 20
92.90000002384193
 30
0.0
 11
-126.9999998688139
 21
92.90000002384193
 31
0.0
  0
LINE
  5
1EE
330
59
100
AcDbEntity
  8
0
  6
Continuous
 62
     7
100
AcDbLine
 10
-117.7999998688121
 20
92.90000002384193
 30
0.0
 11
-116.5999998688117
 21
92.90000002384193
 31
0.0
  0
LINE
  5
1EF
330
59
100
AcDbEntity
  8
0
  6
Continuous
 62
     7
100
AcDbLine
 10
-172.1999998688121
 20
92.90000002384193
 30
0.0
 11
-172.1999998688121
 21
95.10000002384197
 31
0.0
  0
LINE
  5
1F0
330
59
100
AcDbEntity
  8
0
  6
Continuous
 62
     7
100
AcDbLine
 10
-173.3999998688117
 20
95.1000000238422
 30
0.0
 11
-172.1999998688121
 21
95.10000002384197
 31
0.0
  0
LINE
  5
1F1
330
59
100
AcDbEntity
  8
0
  6
Continuous
 62
     7
100
AcDbLine
 10
-173.3999998688117
 20
95.1000000238422
 30
0.0
 11
-173.3999998688117
 21
92.90000002384193
 31
0.0
  0
LINE
  5
1F2
330
59
100
AcDbEntity
  8
0
  6
Continuous
 62
     7
100
AcDbLine
 10
-162.9999998688102
 20
92.90000002384193
 30
0.0
 11
-126.9999998688139
 21
92.90000002384193
 31
0.0
  0
ENDBLK
  5
5B
330
59
100
AcDbEntity
  8
0
100
AcDbBlockEnd
  0
BLOCK
  5
5E
330
5C
100
AcDbEntity
  8
0
100
AcDbBlockBegin
  2
Drfsicht1
 70
     0
 10
-145.000000000065
 20
94.0000000000001
 30
0.0
  3
Drfsicht1
  1

  0
INSERT
  5
5D
330
5C
100
AcDbEntity
  8
0
100
AcDbBlockReference
  2
D_UT_2_5_4_TWIN-select__2
 10
-173.3999998688117
 20
92.90000002384193
 30
0.0
  0
MTEXT
  5
1F3
330
5C
100
AcDbEntity
  8
1
 62
     6
100
AcDbMText
 10
-145.000000000065
 20
87.89999997615791
 30
0.0
 40
5.0
 41
0.0
 71
     2
 72
     1
  1
 
  7
CONVERTER_11
 73
     1
 44
1.32052821128451
  0
DIMENSION
  5
200
330
5C
100
AcDbEntity
  8
1
100
AcDbDimension
  2
*D17
 10
-181.8598427762373
 20
92.90000002384194
 30
0.0
 11
-185.7848427762373
 21
102.1413036322234
 31
0.0
 70
    32
  1
<>
 71
     5
 42
-1.0
 53
90.0
  3
ME10_DIM_10
100
AcDbAlignedDimension
 13
-117.7999998688121
 23
95.10000002384197
 33
0.0
 14
-117.7999998688121
 24
92.90000002384193
 34
0.0
 50
90.0
100
AcDbRotatedDimension
  0
ENDBLK
  5
5F
330
5C
100
AcDbEntity
  8
0
100
AcDbBlockEnd
  0
BLOCK
  5
61
330
60
100
AcDbEntity
  8
0
100
AcDbBlockBegin
  2
D_UT_2_5_4_TWIN-select__3
 70
     0
 10
-72.5999999404486
 20
125.099999551771
 30
0.0
  3
D_UT_2_5_4_TWIN-select__3
  1

  0
LINE
  5
201
330
60
100
AcDbEntity
  8
0
  6
Continuous
 62
     7
100
AcDbLine
 10
-19.0499999404482
 20
151.5722961379526
 30
0.0
 11
-19.04999994044819
 21
146.9999995517716
 31
0.0
  0
LINE
  5
202
330
60
100
AcDbEntity
  8
0
  6
Continuous
 62
     7
100
AcDbLine
 10
-15.7999999404486
 20
130.1080321898222
 30
0.0
 11
-15.7999999404486
 21
134.6737065161513
 31
0.0
  0
LINE
  5
203
330
60
100
AcDbEntity
  8
0
  6
Continuous
 62
     7
100
AcDbLine
 10
-24.47416691551656
 20
125.099999551771
 30
0.0
 11
-15.7999999404486
 21
130.1080321898222
 31
0.0
  0
LINE
  5
204
330
60
100
AcDbEntity
  8
0
  6
Continuous
 62
     7
100
AcDbLine
 10
-70.3499999404482
 20
146.8621313958853
 30
0.0
 11
-70.3499999404482
 21
153.0004441446947
 31
0.0
  0
LINE
  5
205
330
60
100
AcDbEntity
  8
0
  6
Continuous
 62
     7
100
AcDbLine
 10
-71.3999999404482
 20
154.4999995517739
 30
0.0
 11
-70.3499999404482
 21
153.0004441446947
 31
0.0
  0
LINE
  5
206
330
60
100
AcDbEntity
  8
0
  6
Continuous
 62
     7
100
AcDbLine
 10
-71.3999999404482
 20
155.6999995517694
 30
0.0
 11
-71.3999999404482
 21
154.4999995517739
 31
0.0
  0
LINE
  5
207
330
60
100
AcDbEntity
  8
0
  6
Continuous
 62
     7
100
AcDbLine
 10
-71.3999999404482
 20
155.6999995517694
 30
0.0
 11
-62.19999994044628
 21
164.8999995517735
 31
0.0
  0
LINE
  5
208
330
60
100
AcDbEntity
  8
0
  6
Continuous
 62
     7
100
AcDbLine
 10
-62.19999994044628
 20
164.8999995517735
 30
0.0
 11
-26.19999994045013
 21
164.8999995517735
 31
0.0
  0
LINE
  5
209
330
60
100
AcDbEntity
  8
0
  6
Continuous
 62
     7
100
AcDbLine
 10
-72.59999994044858
 20
134.6991753407141
 30
0.0
 11
-72.5999999404486
 21
130.1080321898222
 31
0.0
  0
LINE
  5
20A
330
60
100
AcDbEntity
  8
0
  6
Continuous
 62
     7
100
AcDbLine
 10
-72.5999999404486
 20
130.1080321898222
 30
0.0
 11
-63.92583296538066
 21
125.099999551771
 31
0.0
  0
LINE
  5
20B
330
60
100
AcDbEntity
  8
0
  6
Continuous
 62
     7
100
AcDbLine
 10
-63.92583296538066
 20
125.099999551771
 30
0.0
 11
-24.47416691551656
 21
125.099999551771
 31
0.0
  0
LINE
  5
20C
330
60
100
AcDbEntity
  8
0
  6
Continuous
 62
     7
100
AcDbLine
 10
-16.99999994044819
 20
154.4999995517739
 30
0.0
 11
-19.0499999404482
 21
151.5722961379526
 31
0.0
  0
LINE
  5
20D
330
60
100
AcDbEntity
  8
0
  6
Continuous
 62
     7
100
AcDbLine
 10
-16.99999994044819
 20
155.6999995517695
 30
0.0
 11
-16.99999994044819
 21
154.4999995517739
 31
0.0
  0
LINE
  5
20E
330
60
100
AcDbEntity
  8
0
  6
Continuous
 62
     7
100
AcDbLine
 10
-26.19999994045013
 20
164.8999995517735
 30
0.0
 11
-16.99999994044819
 21
155.6999995517695
 31
0.0
  0
ARC
  5
20F
330
60
100
AcDbEntity
  8
0
  6
Continuous
 62
     7
100
AcDbCircle
 10
5.95000005955185
 20
146.9999995517716
 30
0.0
 40
25.00000000000004
100
AcDbArc
 50
180.0
 51
209.5413605001408
  0
ARC
  5
210
330
60
100
AcDbEntity
  8
0
  6
Continuous
 62
     7
100
AcDbCircle
 10
-104.3499999404482
 20
146.8621313958852
 30
0.0
 40
33.99999999999999
100
AcDbArc
 50
339.0389016408442
 51
0.00000000000019
  0
ENDBLK
  5
62
330
60
100
AcDbEntity
  8
0
100
AcDbBlockEnd
  0
BLOCK
  5
65
330
63
100
AcDbEntity
  8
0
100
AcDbBlockBegin
  2
Rckans1
 70
     0
 10
-44.19999980919526
 20
144.9999996423023
 30
0.0
  3
Rckans1
  1

  0
INSERT
  5
64
330
63
100
AcDbEntity
  8
0
100
AcDbBlockReference
  2
D_UT_2_5_4_TWIN-select__3
 10
-72.5999999404486
 20
125.099999551771
 30
0.0
  0
MTEXT
  5
211
330
63
100
AcDbEntity
  8
1
 62
     6
100
AcDbMText
 10
-44.19999980919533
 20
120.1000000237721
 30
0.0
 40
5.0
 41
0.0
 71
     2
 72
     1
  1
 
  7
CONVERTER_11
 73
     1
 44
1.32052821128451
  0
ENDBLK
  5
66
330
63
100
AcDbEntity
  8
0
100
AcDbBlockEnd
  0
BLOCK
  5
68
330
67
100
AcDbEntity
  8
0
100
AcDbBlockBegin
  2
D_UT_2_5_4_TWIN-select__4
 70
     0
 10
-91.58124379609058
 20
125.099999551771
 30
0.0
  3
D_UT_2_5_4_TWIN-select__4
  1

  0
LINE
  5
212
330
67
100
AcDbEntity
  8
0
  6
Continuous
 62
     7
100
AcDbLine
 10
-91.58124379609048
 20
134.6737065161513
 30
0.0
 11
-91.58124379609035
 21
146.9999995517716
 31
0.0
  0
LINE
  5
213
330
67
100
AcDbEntity
  8
0
  6
Continuous
 62
     7
100
AcDbLine
 10
-91.5812437960903
 20
151.5722961379526
 30
0.0
 11
-91.58124379609035
 21
146.9999995517716
 31
0.0
  0
LINE
  5
214
330
67
100
AcDbEntity
  8
0
  6
Continuous
 62
     7
100
AcDbLine
 10
-91.58124379609026
 20
155.6999995517694
 30
0.0
 11
-91.58124379609026
 21
154.4999995517739
 31
0.0
  0
LINE
  5
215
330
67
100
AcDbEntity
  8
0
  6
Continuous
 62
     7
100
AcDbLine
 10
-91.58124379609016
 20
164.8999995517735
 30
0.0
 11
-91.58124379609026
 21
155.6999995517694
 31
0.0
  0
LINE
  5
216
330
67
100
AcDbEntity
  8
0
  6
Continuous
 62
     7
100
AcDbLine
 10
-91.58124379609026
 20
154.4999995517739
 30
0.0
 11
-91.5812437960903
 21
151.5722961379526
 31
0.0
  0
LINE
  5
217
330
67
100
AcDbEntity
  8
0
  6
Continuous
 62
     7
100
AcDbLine
 10
-89.3812437960902
 20
164.8999995517735
 30
0.0
 11
-91.58124379609016
 21
164.8999995517735
 31
0.0
  0
LINE
  5
218
330
67
100
AcDbEntity
  8
0
  6
Continuous
 62
     7
100
AcDbLine
 10
-91.58124379609058
 20
125.099999551771
 30
0.0
 11
-91.58124379609053
 21
130.1080321898222
 31
0.0
  0
LINE
  5
219
330
67
100
AcDbEntity
  8
0
  6
Continuous
 62
     7
100
AcDbLine
 10
-91.58124379609053
 20
130.1080321898222
 30
0.0
 11
-91.58124379609048
 21
134.6737065161513
 31
0.0
  0
LINE
  5
21A
330
67
100
AcDbEntity
  8
0
  6
Continuous
 62
     2
100
AcDbLine
 10
-89.3812437960902
 20
146.9999995517716
 30
0.0
 11
-91.58124379609035
 21
146.9999995517716
 31
0.0
  0
LINE
  5
21B
330
67
100
AcDbEntity
  8
0
  6
Continuous
 62
     7
100
AcDbLine
 10
-89.3812437960902
 20
155.6999995517694
 30
0.0
 11
-91.58124379609026
 21
155.6999995517694
 31
0.0
  0
LINE
  5
21C
330
67
100
AcDbEntity
  8
0
  6
Continuous
 62
     7
100
AcDbLine
 10
-89.3812437960902
 20
154.4999995517739
 30
0.0
 11
-91.58124379609026
 21
154.4999995517739
 31
0.0
  0
LINE
  5
21D
330
67
100
AcDbEntity
  8
0
  6
Continuous
 62
     7
100
AcDbLine
 10
-91.5812437960903
 20
151.5722961379526
 30
0.0
 11
-89.3812437960902
 21
151.5722961379526
 31
0.0
  0
LINE
  5
21E
330
67
100
AcDbEntity
  8
0
  6
Continuous
 62
     7
100
AcDbLine
 10
-91.58124379609048
 20
134.6737065161513
 30
0.0
 11
-89.3812437960902
 21
134.6737065161513
 31
0.0
  0
LINE
  5
21F
330
67
100
AcDbEntity
  8
0
  6
Continuous
 62
     7
100
AcDbLine
 10
-89.3812437960902
 20
146.9999995517716
 30
0.0
 11
-89.3812437960902
 21
151.5722961379526
 31
0.0
  0
LINE
  5
220
330
67
100
AcDbEntity
  8
0
  6
Continuous
 62
     7
100
AcDbLine
 10
-89.3812437960902
 20
134.6737065161513
 30
0.0
 11
-89.3812437960902
 21
130.1080321898222
 31
0.0
  0
LINE
  5
221
330
67
100
AcDbEntity
  8
0
  6
Continuous
 62
     7
100
AcDbLine
 10
-89.3812437960902
 20
154.4999995517739
 30
0.0
 11
-89.3812437960902
 21
155.6999995517694
 31
0.0
  0
LINE
  5
222
330
67
100
AcDbEntity
  8
0
  6
Continuous
 62
     7
100
AcDbLine
 10
-89.3812437960902
 20
151.5722961379526
 30
0.0
 11
-89.3812437960902
 21
154.4999995517739
 31
0.0
  0
LINE
  5
223
330
67
100
AcDbEntity
  8
0
  6
Continuous
 62
     7
100
AcDbLine
 10
-89.3812437960902
 20
125.099999551771
 30
0.0
 11
-89.3812437960902
 21
130.1080321898222
 31
0.0
  0
LINE
  5
224
330
67
100
AcDbEntity
  8
0
  6
Continuous
 62
     7
100
AcDbLine
 10
-89.3812437960902
 20
155.6999995517694
 30
0.0
 11
-89.3812437960902
 21
164.8999995517735
 31
0.0
  0
LINE
  5
225
330
67
100
AcDbEntity
  8
0
  6
Continuous
 62
     7
100
AcDbLine
 10
-89.3812437960902
 20
125.099999551771
 30
0.0
 11
-91.58124379609058
 21
125.099999551771
 31
0.0
  0
LINE
  5
226
330
67
100
AcDbEntity
  8
0
  6
Continuous
 62
     7
100
AcDbLine
 10
-91.58124379609053
 20
130.1080321898222
 30
0.0
 11
-89.3812437960902
 21
130.1080321898222
 31
0.0
  0
LINE
  5
227
330
67
100
AcDbEntity
  8
0
  6
Continuous
 62
     7
100
AcDbLine
 10
-89.3812437960902
 20
134.6737065161513
 30
0.0
 11
-89.3812437960902
 21
146.9999995517716
 31
0.0
  0
ENDBLK
  5
69
330
67
100
AcDbEntity
  8
0
100
AcDbBlockEnd
  0
BLOCK
  5
6C
330
6A
100
AcDbEntity
  8
0
100
AcDbBlockBegin
  2
SA_Links1
 70
     0
 10
-90.48124377224838
 20
144.9999996423023
 30
0.0
  3
SA_Links1
  1

  0
INSERT
  5
6B
330
6A
100
AcDbEntity
  8
0
100
AcDbBlockReference
  2
D_UT_2_5_4_TWIN-select__4
 10
-91.58124379609058
 20
125.099999551771
 30
0.0
  0
MTEXT
  5
228
330
6A
100
AcDbEntity
  8
1
 62
     6
100
AcDbMText
 10
-90.48124377224838
 20
120.1000000237721
 30
0.0
 40
5.0
 41
0.0
 71
     2
 72
     1
  1
 
  7
CONVERTER_11
 73
     1
 44
1.32052821128451
  0
ENDBLK
  5
6D
330
6A
100
AcDbEntity
  8
0
100
AcDbBlockEnd
  0
BLOCK
  5
6F
330
6E
100
AcDbEntity
  8
0
100
AcDbBlockBegin
  2
D_UT_2_5_4_TWIN-select__5
 70
     0
 10
-208.5000000715258
 20
125.099999551771
 30
0.0
  3
D_UT_2_5_4_TWIN-select__5
  1

  0
LINE
  5
229
330
6E
100
AcDbEntity
  8
0
  6
Continuous
 62
     7
100
AcDbLine
 10
-206.3000000715257
 20
154.4999995517739
 30
0.0
 11
-206.3000000715257
 21
153.0004441446947
 31
0.0
  0
LINE
  5
22A
330
6E
100
AcDbEntity
  8
0
  6
Continuous
 62
     7
100
AcDbLine
 10
-206.3000000715256
 20
146.8621313958853
 30
0.0
 11
-206.3000000715257
 21
153.0004441446947
 31
0.0
  0
LINE
  5
22B
330
6E
100
AcDbEntity
  8
0
  6
Continuous
 62
     7
100
AcDbLine
 10
-206.3000000715256
 20
146.8621313958853
 30
0.0
 11
-206.3000000715256
 21
134.6991753407141
 31
0.0
  0
LINE
  5
22C
330
6E
100
AcDbEntity
  8
0
  6
Continuous
 62
     7
100
AcDbLine
 10
-206.3000000715256
 20
134.6991753407141
 30
0.0
 11
-206.3000000715254
 21
130.1080321898222
 31
0.0
  0
LINE
  5
22D
330
6E
100
AcDbEntity
  8
0
  6
Continuous
 62
     7
100
AcDbLine
 10
-206.3000000715254
 20
130.1080321898222
 30
0.0
 11
-206.3000000715254
 21
125.099999551771
 31
0.0
  0
LINE
  5
22E
330
6E
100
AcDbEntity
  8
0
  6
Continuous
 62
     7
100
AcDbLine
 10
-206.3000000715257
 20
155.6999995517695
 30
0.0
 11
-206.3000000715257
 21
154.4999995517739
 31
0.0
  0
LINE
  5
22F
330
6E
100
AcDbEntity
  8
0
  6
Continuous
 62
     7
100
AcDbLine
 10
-206.3000000715257
 20
155.6999995517695
 30
0.0
 11
-206.3000000715258
 21
164.8999995517735
 31
0.0
  0
LINE
  5
230
330
6E
100
AcDbEntity
  8
0
  6
Continuous
 62
     7
100
AcDbLine
 10
-206.3000000715254
 20
125.099999551771
 30
0.0
 11
-208.5000000715258
 21
125.099999551771
 31
0.0
  0
LINE
  5
231
330
6E
100
AcDbEntity
  8
0
  6
Continuous
 62
     7
100
AcDbLine
 10
-206.3000000715256
 20
134.6991753407141
 30
0.0
 11
-208.5000000715258
 21
134.6991753407141
 31
0.0
  0
LINE
  5
232
330
6E
100
AcDbEntity
  8
0
  6
Continuous
 62
     7
100
AcDbLine
 10
-206.3000000715254
 20
130.1080321898222
 30
0.0
 11
-208.5000000715258
 21
130.1080321898222
 31
0.0
  0
LINE
  5
233
330
6E
100
AcDbEntity
  8
0
  6
Continuous
 62
     7
100
AcDbLine
 10
-208.5000000715258
 20
125.099999551771
 30
0.0
 11
-208.5000000715258
 21
130.1080321898222
 31
0.0
  0
LINE
  5
234
330
6E
100
AcDbEntity
  8
0
  6
Continuous
 62
     7
100
AcDbLine
 10
-208.5000000715258
 20
153.0004441446947
 30
0.0
 11
-208.5000000715258
 21
154.4999995517739
 31
0.0
  0
LINE
  5
235
330
6E
100
AcDbEntity
  8
0
  6
Continuous
 62
     7
100
AcDbLine
 10
-208.5000000715258
 20
153.0004441446947
 30
0.0
 11
-208.5000000715258
 21
146.8621313958853
 31
0.0
  0
LINE
  5
236
330
6E
100
AcDbEntity
  8
0
  6
Continuous
 62
     7
100
AcDbLine
 10
-208.5000000715258
 20
130.1080321898222
 30
0.0
 11
-208.5000000715258
 21
134.6991753407141
 31
0.0
  0
LINE
  5
237
330
6E
100
AcDbEntity
  8
0
  6
Continuous
 62
     7
100
AcDbLine
 10
-206.3000000715257
 20
153.0004441446947
 30
0.0
 11
-208.5000000715258
 21
153.0004441446947
 31
0.0
  0
LINE
  5
238
330
6E
100
AcDbEntity
  8
0
  6
Continuous
 62
     7
100
AcDbLine
 10
-208.5000000715258
 20
164.8999995517735
 30
0.0
 11
-206.3000000715258
 21
164.8999995517735
 31
0.0
  0
LINE
  5
239
330
6E
100
AcDbEntity
  8
0
  6
Continuous
 62
     7
100
AcDbLine
 10
-208.5000000715258
 20
154.4999995517739
 30
0.0
 11
-208.5000000715258
 21
155.6999995517695
 31
0.0
  0
LINE
  5
23A
330
6E
100
AcDbEntity
  8
0
  6
Continuous
 62
     7
100
AcDbLine
 10
-208.5000000715258
 20
155.6999995517695
 30
0.0
 11
-208.5000000715258
 21
164.8999995517735
 31
0.0
  0
LINE
  5
23B
330
6E
100
AcDbEntity
  8
0
  6
Continuous
 62
     7
100
AcDbLine
 10
-208.5000000715258
 20
154.4999995517739
 30
0.0
 11
-206.3000000715257
 21
154.4999995517739
 31
0.0
  0
LINE
  5
23C
330
6E
100
AcDbEntity
  8
0
  6
Continuous
 62
     2
100
AcDbLine
 10
-206.3000000715256
 20
146.8621313958853
 30
0.0
 11
-208.5000000715258
 21
146.8621313958853
 31
0.0
  0
LINE
  5
23D
330
6E
100
AcDbEntity
  8
0
  6
Continuous
 62
     7
100
AcDbLine
 10
-208.5000000715258
 20
155.6999995517695
 30
0.0
 11
-206.3000000715257
 21
155.6999995517695
 31
0.0
  0
LINE
  5
23E
330
6E
100
AcDbEntity
  8
0
  6
Continuous
 62
     7
100
AcDbLine
 10
-208.5000000715258
 20
146.8621313958853
 30
0.0
 11
-208.5000000715258
 21
134.6991753407141
 31
0.0
  0
ENDBLK
  5
70
330
6E
100
AcDbEntity
  8
0
100
AcDbBlockEnd
  0
BLOCK
  5
73
330
71
100
AcDbEntity
  8
0
100
AcDbBlockBegin
  2
SA_Rechts1
 70
     0
 10
-207.4000000953676
 20
144.9999996423023
 30
0.0
  3
SA_Rechts1
  1

  0
INSERT
  5
72
330
71
100
AcDbEntity
  8
0
100
AcDbBlockReference
  2
D_UT_2_5_4_TWIN-select__5
 10
-208.5000000715258
 20
125.099999551771
 30
0.0
  0
ENDBLK
  5
74
330
71
100
AcDbEntity
  8
0
100
AcDbBlockEnd
  0
BLOCK
  5
76
330
75
100
AcDbEntity
  8
0
100
AcDbBlockBegin
  2
D_UT_2_5_4_TWIN-select__6
 70
     0
 10
-173.3999998688117
 20
125.0999995517711
 30
0.0
  3
D_UT_2_5_4_TWIN-select__6
  1

  0
LINE
  5
23F
330
75
100
AcDbEntity
  8
0
  6
Continuous
 62
     7
100
AcDbLine
 10
-170.1499998688121
 20
146.9999995517718
 30
0.0
 11
-170.1499998688121
 21
151.5722961379527
 31
0.0
  0
LINE
  5
240
330
75
100
AcDbEntity
  8
0
  6
Continuous
 62
     7
100
AcDbLine
 10
-173.3999998688117
 20
134.6737065161514
 30
0.0
 11
-173.3999998688117
 21
130.1080321898223
 31
0.0
  0
LINE
  5
241
330
75
100
AcDbEntity
  8
0
  6
Continuous
 62
     7
100
AcDbLine
 10
-172.1999998688121
 20
154.499999551774
 30
0.0
 11
-172.1999998688121
 21
155.6999995517696
 31
0.0
  0
LINE
  5
242
330
75
100
AcDbEntity
  8
0
  6
Continuous
 62
     7
100
AcDbLine
 10
-170.1499998688121
 20
151.5722961379527
 30
0.0
 11
-172.1999998688121
 21
154.499999551774
 31
0.0
  0
LINE
  5
243
330
75
100
AcDbEntity
  8
0
  6
Continuous
 62
     7
100
AcDbLine
 10
-117.7999998688121
 20
154.4999995517741
 30
0.0
 11
-117.7999998688121
 21
155.6999995517696
 31
0.0
  0
LINE
  5
244
330
75
100
AcDbEntity
  8
0
  6
Continuous
 62
     7
100
AcDbLine
 10
-117.7999998688121
 20
155.6999995517696
 30
0.0
 11
-126.999999868814
 21
164.8999995517736
 31
0.0
  0
LINE
  5
245
330
75
100
AcDbEntity
  8
0
  6
Continuous
 62
     7
100
AcDbLine
 10
-164.7258328937437
 20
125.0999995517711
 30
0.0
 11
-173.3999998688117
 21
130.1080321898223
 31
0.0
  0
LINE
  5
246
330
75
100
AcDbEntity
  8
0
  6
Continuous
 62
     7
100
AcDbLine
 10
-162.9999998688102
 20
164.8999995517736
 30
0.0
 11
-126.999999868814
 21
164.8999995517736
 31
0.0
  0
LINE
  5
247
330
75
100
AcDbEntity
  8
0
  6
Continuous
 62
     7
100
AcDbLine
 10
-118.8499998688121
 20
153.0004441446948
 30
0.0
 11
-117.7999998688121
 21
154.4999995517741
 31
0.0
  0
LINE
  5
248
330
75
100
AcDbEntity
  8
0
  6
Continuous
 62
     7
100
AcDbLine
 10
-118.8499998688121
 20
153.0004441446948
 30
0.0
 11
-118.8499998688121
 21
146.8621313958854
 31
0.0
  0
LINE
  5
249
330
75
100
AcDbEntity
  8
0
  6
Continuous
 62
     7
100
AcDbLine
 10
-116.5999998688117
 20
130.1080321898223
 30
0.0
 11
-116.5999998688117
 21
134.6991753407143
 31
0.0
  0
LINE
  5
24A
330
75
100
AcDbEntity
  8
0
  6
Continuous
 62
     7
100
AcDbLine
 10
-125.2741668438796
 20
125.0999995517711
 30
0.0
 11
-116.5999998688117
 21
130.1080321898223
 31
0.0
  0
LINE
  5
24B
330
75
100
AcDbEntity
  8
0
  6
Continuous
 62
     7
100
AcDbLine
 10
-125.2741668438796
 20
125.0999995517711
 30
0.0
 11
-164.7258328937437
 21
125.0999995517711
 31
0.0
  0
LINE
  5
24C
330
75
100
AcDbEntity
  8
0
  6
Continuous
 62
     7
100
AcDbLine
 10
-172.1999998688121
 20
155.6999995517696
 30
0.0
 11
-162.9999998688102
 21
164.8999995517736
 31
0.0
  0
ARC
  5
24D
330
75
100
AcDbEntity
  8
0
  6
Continuous
 62
     7
100
AcDbCircle
 10
-195.1499998688121
 20
146.9999995517718
 30
0.0
 40
25.00000000000002
100
AcDbArc
 50
330.458639499859
 51
0.0
  0
ARC
  5
24E
330
75
100
AcDbEntity
  8
0
  6
Continuous
 62
     7
100
AcDbCircle
 10
-84.84999986881209
 20
146.8621313958854
 30
0.0
 40
34.00000000000001
100
AcDbArc
 50
180.0
 51
200.9610983591558
  0
ENDBLK
  5
77
330
75
100
AcDbEntity
  8
0
100
AcDbBlockEnd
  0
BLOCK
  5
7A
330
78
100
AcDbEntity
  8
0
100
AcDbBlockBegin
  2
Vordans1
 70
     0
 10
-145.000000000065
 20
144.9999996423024
 30
0.0
  3
Vordans1
  1

  0
INSERT
  5
79
330
78
100
AcDbEntity
  8
0
100
AcDbBlockReference
  2
D_UT_2_5_4_TWIN-select__6
 10
-173.3999998688117
 20
125.0999995517711
 30
0.0
  0
MTEXT
  5
24F
330
78
100
AcDbEntity
  8
1
 62
     6
100
AcDbMText
 10
-145.0000000000651
 20
120.1000000237721
 30
0.0
 40
5.0
 41
0.0
 71
     2
 72
     1
  1
 
  7
CONVERTER_11
 73
     1
 44
1.32052821128451
  0
DIMENSION
  5
25A
330
78
100
AcDbEntity
  8
1
100
AcDbDimension
  2
*D18
 10
-116.5999998688117
 20
113.8388489105156
 30
0.0
 11
-145.0000000000651
 21
117.7638489105156
 31
0.0
 70
    32
  1
<>
 71
     5
 42
-1.0
 53
0.00013888888889
  3
ME10_DIM_11
100
AcDbAlignedDimension
 13
-173.3999998688117
 23
130.1080321898223
 33
0.0
 14
-116.5999998688117
 24
130.1080321898223
 34
0.0
100
AcDbRotatedDimension
  0
DIMENSION
  5
265
330
78
100
AcDbEntity
  8
1
100
AcDbDimension
  2
*D19
 10
-181.8598427762373
 20
125.0999995517711
 30
0.0
 11
-185.7848427762373
 21
145.213599740658
 31
0.0
 70
    32
  1
<>
 71
     5
 42
-1.0
 53
90.0
  3
ME10_DIM_12
100
AcDbAlignedDimension
 13
-126.999999868814
 23
164.8999995517736
 33
0.0
 14
-125.2741668438796
 24
125.0999995517711
 34
0.0
 50
90.0
100
AcDbRotatedDimension
  0
ENDBLK
  5
7B
330
78
100
AcDbEntity
  8
0
100
AcDbBlockEnd
  0
BLOCK
  5
84
330
7C
100
AcDbEntity
  8
0
100
AcDbBlockBegin
  2
1
 70
     0
 10
0.0
 20
0.0
 30
0.0
  3
1
  1

  0
INSERT
  5
7D
330
7C
100
AcDbEntity
  8
0
100
AcDbBlockReference
  2
A4I_CS
 10
51.85072506814116
 20
-1.45510982973286
 30
0.0
  0
INSERT
  5
7E
330
7C
100
AcDbEntity
  8
0
100
AcDbBlockReference
  2
AllgSicht1
 10
-0.00000000005605
 20
76.99999999995589
 30
0.0
  0
INSERT
  5
7F
330
7C
100
AcDbEntity
  8
0
100
AcDbBlockReference
  2
Drfsicht1
 10
-145.000000000065
 20
94.0000000000001
 30
0.0
  0
INSERT
  5
80
330
7C
100
AcDbEntity
  8
0
100
AcDbBlockReference
  2
Rckans1
 10
-44.19999980919526
 20
144.9999996423023
 30
0.0
  0
INSERT
  5
81
330
7C
100
AcDbEntity
  8
0
100
AcDbBlockReference
  2
SA_Links1
 10
-90.48124377224838
 20
144.9999996423023
 30
0.0
  0
INSERT
  5
82
330
7C
100
AcDbEntity
  8
0
100
AcDbBlockReference
  2
SA_Rechts1
 10
-207.4000000953676
 20
144.9999996423023
 30
0.0
  0
INSERT
  5
83
330
7C
100
AcDbEntity
  8
0
100
AcDbBlockReference
  2
Vordans1
 10
-145.000000000065
 20
144.9999996423024
 30
0.0
  0
ENDBLK
  5
85
330
7C
100
AcDbEntity
  8
0
100
AcDbBlockEnd
  0
BLOCK
  5
1FD
330
1F4
100
AcDbEntity
  8
0
100
AcDbBlockBegin
  2
*D17
 70
     1
 10
0.0
 20
0.0
 30
0.0
  3
*D17
  1

  0
LINE
  5
1F5
330
1F4
100
AcDbEntity
  8
1
  6
Continuous
 62
     2
100
AcDbLine
 10
-181.8598427762373
 20
85.90000002384194
 30
0.0
 11
-181.8598427762373
 21
92.90000002384194
 31
0.0
  0
LINE
  5
1F6
330
1F4
100
AcDbEntity
  8
1
  6
Continuous
 62
     2
100
AcDbLine
 10
-181.8598427762373
 20
92.90000002384194
 30
0.0
 11
-181.8598427762373
 21
95.10000002384199
 31
0.0
  0
LINE
  5
1F7
330
1F4
100
AcDbEntity
  8
1
  6
Continuous
 62
     2
100
AcDbLine
 10
-181.8598427762373
 20
95.10000002384199
 30
0.0
 11
-181.8598427762373
 21
105.3788036322234
 31
0.0
  0
LINE
  5
1F8
330
1F4
100
AcDbEntity
  8
1
  6
Continuous
 62
     2
100
AcDbLine
 10
-117.799999868812
 20
92.90000002384194
 30
0.0
 11
-183.8598427762373
 21
92.90000002384194
 31
0.0
  0
LINE
  5
1F9
330
1F4
100
AcDbEntity
  8
1
  6
Continuous
 62
     2
100
AcDbLine
 10
-117.799999868812
 20
95.10000002384199
 30
0.0
 11
-183.8598427762373
 21
95.10000002384199
 31
0.0
  0
SOLID
  5
1FA
330
1F4
100
AcDbEntity
  8
1
 62
     2
100
AcDbTrace
 10
-181.3990590346814
 20
89.40000002384194
 30
0.0
 11
-182.3206265177932
 21
89.40000002384194
 31
0.0
 12
-181.8598427762373
 22
92.90000002384194
 32
0.0
 13
-181.8598427762373
 23
92.90000002384194
 33
0.0
  0
SOLID
  5
1FB
330
1F4
100
AcDbEntity
  8
1
 62
     2
100
AcDbTrace
 10
-182.3206265177932
 20
98.60000002384199
 30
0.0
 11
-181.3990590346814
 21
98.60000002384199
 31
0.0
 12
-181.8598427762373
 22
95.10000002384199
 32
0.0
 13
-181.8598427762373
 23
95.10000002384199
 33
0.0
  0
MTEXT
  5
1FC
330
1F4
100
AcDbEntity
  8
1
 62
     3
100
AcDbMText
 10
-184.2098427762373
 20
98.9038036322234
 30
0.0
 40
3.5
 41
0.0
 71
     7
 72
     1
  1
2,2
  7
CONVERTER_11
 11
0.0
 21
1.0
 31
0.0
 73
     1
 44
0.60024009603842
  0
ENDBLK
  5
1FE
330
1F4
100
AcDbEntity
  8
0
100
AcDbBlockEnd
  0
BLOCK
  5
257
330
250
100
AcDbEntity
  8
0
100
AcDbBlockBegin
  2
*D18
 70
     1
 10
0.0
 20
0.0
 30
0.0
  3
*D18
  1

  0
LINE
  5
251
330
250
100
AcDbEntity
  8
1
  6
Continuous
 62
     2
100
AcDbLine
 10
-116.5999998688117
 20
113.8388489105156
 30
0.0
 11
-173.3999998688116
 21
113.8388489105156
 31
0.0
  0
LINE
  5
252
330
250
100
AcDbEntity
  8
1
  6
Continuous
 62
     2
100
AcDbLine
 10
-116.5999998688117
 20
130.1080321898223
 30
0.0
 11
-116.5999998688117
 21
111.8388489105156
 31
0.0
  0
LINE
  5
253
330
250
100
AcDbEntity
  8
1
  6
Continuous
 62
     2
100
AcDbLine
 10
-173.3999998688116
 20
130.1080321898223
 30
0.0
 11
-173.3999998688116
 21
111.8388489105156
 31
0.0
  0
SOLID
  5
254
330
250
100
AcDbEntity
  8
1
 62
     2
100
AcDbTrace
 10
-120.0999998688117
 20
113.3780651689597
 30
0.0
 11
-120.0999998688117
 21
114.2996326520715
 31
0.0
 12
-116.5999998688117
 22
113.8388489105156
 32
0.0
 13
-116.5999998688117
 23
113.8388489105156
 33
0.0
  0
SOLID
  5
255
330
250
100
AcDbEntity
  8
1
 62
     2
100
AcDbTrace
 10
-169.8999998688116
 20
114.2996326520715
 30
0.0
 11
-169.8999998688116
 21
113.3780651689597
 31
0.0
 12
-173.3999998688116
 22
113.8388489105156
 32
0.0
 13
-173.3999998688116
 23
113.8388489105156
 33
0.0
  0
MTEXT
  5
256
330
250
100
AcDbEntity
  8
1
 62
     3
100
AcDbMText
 10
-149.8125000000651
 20
116.1888489105156
 30
0.0
 40
3.5
 41
0.0
 71
     7
 72
     1
  1
56,8
  7
CONVERTER_11
 11
0.9999999999970619
 21
2.424068405545306E-6
 31
0.0
 73
     1
 44
0.60024009603842
  0
ENDBLK
  5
258
330
250
100
AcDbEntity
  8
0
100
AcDbBlockEnd
  0
BLOCK
  5
262
330
25B
100
AcDbEntity
  8
0
100
AcDbBlockBegin
  2
*D19
 70
     1
 10
0.0
 20
0.0
 30
0.0
  3
*D19
  1

  0
LINE
  5
25C
330
25B
100
AcDbEntity
  8
1
  6
Continuous
 62
     2
100
AcDbLine
 10
-181.8598427762373
 20
125.0999995517711
 30
0.0
 11
-181.8598427762373
 21
164.8999995517736
 31
0.0
  0
LINE
  5
25D
330
25B
100
AcDbEntity
  8
1
  6
Continuous
 62
     2
100
AcDbLine
 10
-125.2741668438796
 20
125.0999995517711
 30
0.0
 11
-183.8598427762373
 21
125.0999995517711
 31
0.0
  0
LINE
  5
25E
330
25B
100
AcDbEntity
  8
1
  6
Continuous
 62
     2
100
AcDbLine
 10
-126.9999998688139
 20
164.8999995517736
 30
0.0
 11
-183.8598427762373
 21
164.8999995517736
 31
0.0
  0
SOLID
  5
25F
330
25B
100
AcDbEntity
  8
1
 62
     2
100
AcDbTrace
 10
-182.3206265177932
 20
128.5999995517711
 30
0.0
 11
-181.3990590346814
 21
128.5999995517711
 31
0.0
 12
-181.8598427762373
 22
125.0999995517711
 32
0.0
 13
-181.8598427762373
 23
125.0999995517711
 33
0.0
  0
SOLID
  5
260
330
25B
100
AcDbEntity
  8
1
 62
     2
100
AcDbTrace
 10
-181.3990590346814
 20
161.3999995517736
 30
0.0
 11
-182.3206265177932
 21
161.3999995517736
 31
0.0
 12
-181.8598427762373
 22
164.8999995517736
 32
0.0
 13
-181.8598427762373
 23
164.8999995517736
 33
0.0
  0
MTEXT
  5
261
330
25B
100
AcDbEntity
  8
1
 62
     3
100
AcDbMText
 10
-184.2098427762373
 20
140.401099740658
 30
0.0
 40
3.5
 41
0.0
 71
     7
 72
     1
  1
39,8
  7
CONVERTER_11
 11
0.0
 21
1.0
 31
0.0
 73
     1
 44
0.60024009603842
  0
ENDBLK
  5
263
330
25B
100
AcDbEntity
  8
0
100
AcDbBlockEnd
  0
ENDSEC
  0
SECTION
  2
ENTITIES
  0
INSERT
  5
86
330
1F
100
AcDbEntity
  8
1
100
AcDbBlockReference
  2
1
 10
0.0
 20
0.0
 30
0.0
  0
ENDSEC
  0
SECTION
  2
OBJECTS
  0
DICTIONARY
  5
C
330
0
100
AcDbDictionary
281
     1
  3
ACAD_GROUP
350
D
  3
ACAD_LAYOUT
350
1A
  3
ACAD_MATERIAL
350
3B
  3
ACAD_MLEADERSTYLE
350
28D
  3
ACAD_MLINESTYLE
350
17
  3
ACAD_PLOTSETTINGS
350
19
  3
ACAD_PLOTSTYLENAME
350
E
  3
ACAD_TABLESTYLE
350
28C
  3
ACAD_VISUALSTYLE
350
2A
  0
DICTIONARY
  5
D
102
{ACAD_REACTORS
330
C
102
}
330
C
100
AcDbDictionary
281
     1
  0
DICTIONARY
  5
1A
102
{ACAD_REACTORS
330
C
102
}
330
C
100
AcDbDictionary
281
     1
  3
Layout1
350
1E
  3
Layout2
350
26
  3
Model
350
22
  0
DICTIONARY
  5
3B
102
{ACAD_REACTORS
330
C
102
}
330
C
100
AcDbDictionary
281
     1
  3
ByBlock
350
3D
  3
ByLayer
350
3C
  3
Global
350
3E
  0
DICTIONARY
  5
28D
102
{ACAD_REACTORS
330
C
102
}
330
C
100
AcDbDictionary
281
     1
  0
DICTIONARY
  5
17
102
{ACAD_REACTORS
330
C
102
}
330
C
100
AcDbDictionary
281
     1
  3
Standard
350
18
  0
DICTIONARY
  5
19
102
{ACAD_REACTORS
330
C
102
}
330
C
100
AcDbDictionary
281
     1
  0
ACDBDICTIONARYWDFLT
  5
E
102
{ACAD_REACTORS
330
C
102
}
330
C
100
AcDbDictionary
281
     1
  3
Normal
350
F
100
AcDbDictionaryWithDefault
340
F
  0
DICTIONARY
  5
28C
102
{ACAD_REACTORS
330
C
102
}
330
C
100
AcDbDictionary
281
     1
  0
DICTIONARY
  5
2A
102
{ACAD_REACTORS
330
C
102
}
330
C
100
AcDbDictionary
281
     1
  3
2dWireframe
350
2F
  3
3D Hidden
350
31
  3
3dWireframe
350
30
  3
Basic
350
32
  3
Brighten
350
36
  3
ColorChange
350
3A
  3
Conceptual
350
34
  3
Dim
350
35
  3
Facepattern
350
39
  3
Flat
350
2B
  3
FlatWithEdges
350
2C
  3
Gouraud
350
2D
  3
GouraudWithEdges
350
2E
  3
Linepattern
350
38
  3
Realistic
350
33
  3
Thicken
350
37
  0
LAYOUT
  5
1E
102
{ACAD_REACTORS
330
1A
102
}
330
1A
100
AcDbPlotSettings
  1

  2
none_device
  4

  6

 40
0.0
 41
0.0
 42
0.0
 43
0.0
 44
0.0
 45
0.0
 46
0.0
 47
0.0
 48
0.0
 49
0.0
140
0.0
141
0.0
142
1.0
143
1.0
 70
   688
 72
     0
 73
     0
 74
     5
  7

 75
    16
 76
     0
 77
     2
 78
   300
147
1.0
148
0.0
149
0.0
100
AcDbLayout
  1
Layout1
 70
     1
 71
     1
 10
0.0
 20
0.0
 11
12.0
 21
9.0
 12
0.0
 22
0.0
 32
0.0
 14
1.00000000000000E+20
 24
1.00000000000000E+20
 34
1.00000000000000E+20
 15
-1.00000000000000E+20
 25
-1.00000000000000E+20
 35
-1.00000000000000E+20
146
0.0
 13
0.0
 23
0.0
 33
0.0
 16
1.0
 26
0.0
 36
0.0
 17
0.0
 27
1.0
 37
0.0
 76
     0
330
1B
  0
LAYOUT
  5
26
102
{ACAD_REACTORS
330
1A
102
}
330
1A
100
AcDbPlotSettings
  1

  2
none_device
  4

  6

 40
0.0
 41
0.0
 42
0.0
 43
0.0
 44
0.0
 45
0.0
 46
0.0
 47
0.0
 48
0.0
 49
0.0
140
0.0
141
0.0
142
1.0
143
1.0
 70
   688
 72
     0
 73
     0
 74
     5
  7

 75
    16
 76
     0
 77
     2
 78
   300
147
1.0
148
0.0
149
0.0
100
AcDbLayout
  1
Layout2
 70
     1
 71
     2
 10
0.0
 20
0.0
 11
0.0
 21
0.0
 12
0.0
 22
0.0
 32
0.0
 14
0.0
 24
0.0
 34
0.0
 15
0.0
 25
0.0
 35
0.0
146
0.0
 13
0.0
 23
0.0
 33
0.0
 16
1.0
 26
0.0
 36
0.0
 17
0.0
 27
1.0
 37
0.0
 76
     0
330
23
  0
LAYOUT
  5
22
102
{ACAD_REACTORS
330
1A
102
}
330
1A
100
AcDbPlotSettings
  1

  2
none_device
  4

  6

 40
0.0
 41
0.0
 42
0.0
 43
0.0
 44
0.0
 45
0.0
 46
0.0
 47
0.0
 48
0.0
 49
0.0
140
0.0
141
0.0
142
1.0
143
1.0
 70
  1712
 72
     0
 73
     0
 74
     0
  7

 75
     0
 76
     0
 77
     2
 78
   300
147
1.0
148
0.0
149
0.0
100
AcDbLayout
  1
Model
 70
     1
 71
     0
 10
0.0
 20
0.0
 11
12.0
 21
9.0
 12
0.0
 22
0.0
 32
0.0
 14
-240.1492749318579
 24
-1.45510982973286
 34
0.0
 15
56.85072506814015
 25
208.5448901702673
 35
0.0
146
0.0
 13
0.0
 23
0.0
 33
0.0
 16
1.0
 26
0.0
 36
0.0
 17
0.0
 27
1.0
 37
0.0
 76
     0
330
1F
331
29
  0
MATERIAL
  5
3D
102
{ACAD_REACTORS
330
3B
102
}
102
{ACAD_XDICTIONARY
360
288
102
}
330
3B
100
AcDbMaterial
  1
ByBlock
  0
MATERIAL
  5
3C
102
{ACAD_REACTORS
330
3B
102
}
102
{ACAD_XDICTIONARY
360
286
102
}
330
3B
100
AcDbMaterial
  1
ByLayer
  0
MATERIAL
  5
3E
102
{ACAD_REACTORS
330
3B
102
}
102
{ACAD_XDICTIONARY
360
28A
102
}
330
3B
100
AcDbMaterial
  1
Global
  0
MLINESTYLE
  5
18
102
{ACAD_REACTORS
330
17
102
}
330
17
100
AcDbMlineStyle
  2
Standard
 70
     0
  3

 62
   256
 51
90.0
 52
90.0
 71
     2
 49
0.5
 62
   256
  6
BYLAYER
 49
-0.5
 62
   256
  6
BYLAYER
  0
ACDBPLACEHOLDER
  5
F
102
{ACAD_REACTORS
330
E
102
}
330
E
  0
VISUALSTYLE
  5
2F
102
{ACAD_REACTORS
330
2A
102
}
102
{ACAD_XDICTIONARY
360
26E
102
}
330
2A
100
AcDbVisualStyle
  2
2dWireframe
 70
     4
 71
     0
 72
     2
 73
     0
 90
        0
 40
-0.6
 41
-30.0
 62
     5
 63
     7
421
 16777215
 74
     1
 91
        4
 64
     7
 65
   257
 75
     1
175
     1
 42
1.0
 92
        0
 66
   257
 43
1.0
 76
     1
 77
     6
 78
     2
 67
     7
 79
     5
170
     0
171
     0
290
     0
174
     0
 93
        1
 44
0.0
173
     0
291
     0
 45
0.0
1001
ACAD
1000
AcDbSavedByObjectVersion
1070
     0
  0
VISUALSTYLE
  5
31
102
{ACAD_REACTORS
330
2A
102
}
102
{ACAD_XDICTIONARY
360
272
102
}
330
2A
100
AcDbVisualStyle
  2
3D Hidden
 70
     6
 71
     1
 72
     2
 73
     2
 90
        0
 40
-0.6
 41
-30.0
 62
     5
 63
     7
421
 16777215
 74
     2
 91
        2
 64
     7
 65
   257
 75
     2
175
     1
 42
40.0
 92
        0
 66
   257
 43
1.0
 76
     1
 77
     6
 78
     2
 67
     7
 79
     3
170
     0
171
     0
290
     0
174
     0
 93
        1
 44
0.0
173
     0
291
     0
 45
0.0
1001
ACAD
1000
AcDbSavedByObjectVersion
1070
     0
  0
VISUALSTYLE
  5
30
102
{ACAD_REACTORS
330
2A
102
}
102
{ACAD_XDICTIONARY
360
270
102
}
330
2A
100
AcDbVisualStyle
  2
3dWireframe
 70
     5
 71
     0
 72
     2
 73
     0
 90
        0
 40
-0.6
 41
-30.0
 62
     5
 63
     7
421
 16777215
 74
     1
 91
        4
 64
     7
 65
   257
 75
     1
175
     1
 42
1.0
 92
        0
 66
   257
 43
1.0
 76
     1
 77
     6
 78
     2
 67
     7
 79
     5
170
     0
171
     0
290
     0
174
     0
 93
        1
 44
0.0
173
     0
291
     0
 45
0.0
1001
ACAD
1000
AcDbSavedByObjectVersion
1070
     0
  0
VISUALSTYLE
  5
32
102
{ACAD_REACTORS
330
2A
102
}
102
{ACAD_XDICTIONARY
360
274
102
}
330
2A
100
AcDbVisualStyle
  2
Basic
 70
     7
 71
     1
 72
     0
 73
     1
 90
        0
 40
-0.6
 41
-30.0
 62
     5
 63
     7
421
 16777215
 74
     0
 91
        4
 64
     7
 65
   257
 75
     1
175
     1
 42
1.0
 92
        8
 66
     7
 43
1.0
 76
     1
 77
     6
 78
     2
 67
     7
 79
     5
170
     0
171
     0
290
     0
174
     0
 93
        1
 44
0.0
173
     0
291
     1
 45
0.0
1001
ACAD
1000
AcDbSavedByObjectVersion
1070
     0
  0
VISUALSTYLE
  5
36
102
{ACAD_REACTORS
330
2A
102
}
102
{ACAD_XDICTIONARY
360
27C
102
}
330
2A
100
AcDbVisualStyle
  2
Brighten
 70
    12
 71
     2
 72
     2
 73
     0
 90
        0
 40
-0.6
 41
-30.0
 62
     5
 63
     7
421
 16777215
 74
     1
 91
        4
 64
     7
 65
   257
 75
     1
175
     1
 42
1.0
 92
        8
 66
     7
 43
1.0
 76
     1
 77
     6
 78
     2
 67
     7
 79
     5
170
     0
171
     0
290
     0
174
     0
 93
        1
 44
50.0
173
     0
291
     1
 45
0.0
1001
ACAD
1000
AcDbSavedByObjectVersion
1070
     0
  0
VISUALSTYLE
  5
3A
102
{ACAD_REACTORS
330
2A
102
}
102
{ACAD_XDICTIONARY
360
284
102
}
330
2A
100
AcDbVisualStyle
  2
ColorChange
 70
    16
 71
     2
 72
     2
 73
     3
 90
        0
 40
-0.6
 41
-30.0
 62
     5
 63
     8
421
  8421504
 74
     1
 91
        4
 64
     7
 65
   257
 75
     1
175
     1
 42
1.0
 92
        8
 66
     8
424
  8421504
 43
1.0
 76
     1
 77
     6
 78
     2
 67
     7
 79
     5
170
     0
171
     0
290
     0
174
     0
 93
        1
 44
0.0
173
     0
291
     1
 45
0.0
1001
ACAD
1000
AcDbSavedByObjectVersion
1070
     0
  0
VISUALSTYLE
  5
34
102
{ACAD_REACTORS
330
2A
102
}
102
{ACAD_XDICTIONARY
360
278
102
}
330
2A
100
AcDbVisualStyle
  2
Conceptual
 70
     9
 71
     3
 72
     2
 73
     0
 90
        0
 40
-0.6
 41
-30.0
 62
     5
 63
     7
421
 16777215
 74
     2
 91
        2
 64
     7
 65
   257
 75
     1
175
     1
 42
40.0
 92
        8
 66
     7
 43
1.0
 76
     1
 77
     6
 78
     2
 67
     7
 79
     3
170
     0
171
     0
290
     0
174
     0
 93
        1
 44
0.0
173
     0
291
     0
 45
0.0
1001
ACAD
1000
AcDbSavedByObjectVersion
1070
     0
  0
VISUALSTYLE
  5
35
102
{ACAD_REACTORS
330
2A
102
}
102
{ACAD_XDICTIONARY
360
27A
102
}
330
2A
100
AcDbVisualStyle
  2
Dim
 70
    11
 71
     2
 72
     2
 73
     0
 90
        0
 40
-0.6
 41
-30.0
 62
     5
 63
     7
421
 16777215
 74
     1
 91
        4
 64
     7
 65
   257
 75
     1
175
     1
 42
1.0
 92
        8
 66
     7
 43
1.0
 76
     1
 77
     6
 78
     2
 67
     7
 79
     5
170
     0
171
     0
290
     0
174
     0
 93
        1
 44
-50.0
173
     0
291
     1
 45
0.0
1001
ACAD
1000
AcDbSavedByObjectVersion
1070
     0
  0
VISUALSTYLE
  5
39
102
{ACAD_REACTORS
330
2A
102
}
102
{ACAD_XDICTIONARY
360
282
102
}
330
2A
100
AcDbVisualStyle
  2
Facepattern
 70
    15
 71
     2
 72
     2
 73
     0
 90
        0
 40
-0.6
 41
-30.0
 62
     5
 63
     7
421
 16777215
 74
     1
 91
        4
 64
     7
 65
   257
 75
     1
175
     1
 42
1.0
 92
        8
 66
     7
 43
1.0
 76
     1
 77
     6
 78
     2
 67
     7
 79
     5
170
     0
171
     0
290
     0
174
     0
 93
        1
 44
0.0
173
     0
291
     1
 45
0.0
1001
ACAD
1000
AcDbSavedByObjectVersion
1070
     0
  0
VISUALSTYLE
  5
2B
102
{ACAD_REACTORS
330
2A
102
}
102
{ACAD_XDICTIONARY
360
266
102
}
330
2A
100
AcDbVisualStyle
  2
Flat
 70
     0
 71
     2
 72
     1
 73
     1
 90
        2
 40
-0.6
 41
30.0
 62
     5
 63
     7
421
 16777215
 74
     0
 91
        4
 64
     7
 65
   257
 75
     1
175
     1
 42
1.0
 92
        8
 66
     7
 43
1.0
 76
     1
 77
     6
 78
     2
 67
     7
 79
     5
170
     0
171
     0
290
     0
174
     0
 93
       13
 44
0.0
173
     0
291
     1
 45
0.0
1001
ACAD
1000
AcDbSavedByObjectVersion
1070
     0
  0
VISUALSTYLE
  5
2C
102
{ACAD_REACTORS
330
2A
102
}
102
{ACAD_XDICTIONARY
360
268
102
}
330
2A
100
AcDbVisualStyle
  2
FlatWithEdges
 70
     1
 71
     2
 72
     1
 73
     1
 90
        2
 40
-0.6
 41
30.0
 62
     5
 63
     7
421
 16777215
 74
     1
 91
        4
 64
     7
 65
   257
 75
     1
175
     1
 42
1.0
 92
        0
 66
   257
 43
1.0
 76
     1
 77
     6
 78
     2
 67
     7
 79
     5
170
     0
171
     0
290
     0
174
     0
 93
       13
 44
0.0
173
     0
291
     1
 45
0.0
1001
ACAD
1000
AcDbSavedByObjectVersion
1070
     0
  0
VISUALSTYLE
  5
2D
102
{ACAD_REACTORS
330
2A
102
}
102
{ACAD_XDICTIONARY
360
26A
102
}
330
2A
100
AcDbVisualStyle
  2
Gouraud
 70
     2
 71
     2
 72
     2
 73
     1
 90
        2
 40
-0.6
 41
30.0
 62
     5
 63
     7
421
 16777215
 74
     0
 91
        4
 64
     7
 65
   257
 75
     1
175
     1
 42
1.0
 92
        0
 66
     7
 43
1.0
 76
     1
 77
     6
 78
     2
 67
     7
 79
     5
170
     0
171
     0
290
     0
174
     0
 93
       13
 44
0.0
173
     0
291
     1
 45
0.0
1001
ACAD
1000
AcDbSavedByObjectVersion
1070
     0
  0
VISUALSTYLE
  5
2E
102
{ACAD_REACTORS
330
2A
102
}
102
{ACAD_XDICTIONARY
360
26C
102
}
330
2A
100
AcDbVisualStyle
  2
GouraudWithEdges
 70
     3
 71
     2
 72
     2
 73
     1
 90
        2
 40
-0.6
 41
30.0
 62
     5
 63
     7
421
 16777215
 74
     1
 91
        4
 64
     7
 65
   257
 75
     1
175
     1
 42
1.0
 92
        0
 66
   257
 43
1.0
 76
     1
 77
     6
 78
     2
 67
     7
 79
     5
170
     0
171
     0
290
     0
174
     0
 93
       13
 44
0.0
173
     0
291
     1
 45
0.0
1001
ACAD
1000
AcDbSavedByObjectVersion
1070
     0
  0
VISUALSTYLE
  5
38
102
{ACAD_REACTORS
330
2A
102
}
102
{ACAD_XDICTIONARY
360
280
102
}
330
2A
100
AcDbVisualStyle
  2
Linepattern
 70
    14
 71
     2
 72
     2
 73
     0
 90
        0
 40
-0.6
 41
-30.0
 62
     5
 63
     7
421
 16777215
 74
     1
 91
        4
 64
     7
 65
   257
 75
     7
175
     7
 42
1.0
 92
        8
 66
     7
 43
1.0
 76
     1
 77
     6
 78
     2
 67
     7
 79
     5
170
     0
171
     0
290
     0
174
     0
 93
        1
 44
0.0
173
     0
291
     1
 45
0.0
1001
ACAD
1000
AcDbSavedByObjectVersion
1070
     0
  0
VISUALSTYLE
  5
33
102
{ACAD_REACTORS
330
2A
102
}
102
{ACAD_XDICTIONARY
360
276
102
}
330
2A
100
AcDbVisualStyle
  2
Realistic
 70
     8
 71
     2
 72
     2
 73
     0
 90
        0
 40
-0.6
 41
-30.0
 62
     5
 63
     7
421
 16777215
 74
     1
 91
        0
 64
     7
 65
   257
 75
     1
175
     1
 42
1.0
 92
        8
 66
     8
424
  7895160
 43
1.0
 76
     1
 77
     6
 78
     2
 67
     7
 79
     5
170
     0
171
     0
290
     0
174
     0
 93
       13
 44
0.0
173
     0
291
     0
 45
0.0
1001
ACAD
1000
AcDbSavedByObjectVersion
1070
     0
  0
VISUALSTYLE
  5
37
102
{ACAD_REACTORS
330
2A
102
}
102
{ACAD_XDICTIONARY
360
27E
102
}
330
2A
100
AcDbVisualStyle
  2
Thicken
 70
    13
 71
     2
 72
     2
 73
     0
 90
        0
 40
-0.6
 41
-30.0
 62
     5
 63
     7
421
 16777215
 74
     1
 91
        4
 64
     7
 65
   257
 75
     1
175
     1
 42
1.0
 92
       12
 66
     7
 43
1.0
 76
     1
 77
     6
 78
     2
 67
     7
 79
     5
170
     0
171
     0
290
     0
174
     0
 93
        1
 44
0.0
173
     0
291
     1
 45
0.0
1001
ACAD
1000
AcDbSavedByObjectVersion
1070
     0
  0
DICTIONARY
  5
288
330
3D
100
AcDbDictionary
280
     1
281
     1
  3
ACAD_XREC_ROUNDTRIP
360
289
  0
DICTIONARY
  5
286
330
3C
100
AcDbDictionary
280
     1
281
     1
  3
ACAD_XREC_ROUNDTRIP
360
287
  0
DICTIONARY
  5
28A
330
3E
100
AcDbDictionary
280
     1
281
     1
  3
ACAD_XREC_ROUNDTRIP
360
28B
  0
DICTIONARY
  5
26E
330
2F
100
AcDbDictionary
280
     1
281
     1
  3
ACAD_XREC_ROUNDTRIP
360
26F
  0
DICTIONARY
  5
272
330
31
100
AcDbDictionary
280
     1
281
     1
  3
ACAD_XREC_ROUNDTRIP
360
273
  0
DICTIONARY
  5
270
330
30
100
AcDbDictionary
280
     1
281
     1
  3
ACAD_XREC_ROUNDTRIP
360
271
  0
DICTIONARY
  5
274
330
32
100
AcDbDictionary
280
     1
281
     1
  3
ACAD_XREC_ROUNDTRIP
360
275
  0
DICTIONARY
  5
27C
330
36
100
AcDbDictionary
280
     1
281
     1
  3
ACAD_XREC_ROUNDTRIP
360
27D
  0
DICTIONARY
  5
284
330
3A
100
AcDbDictionary
280
     1
281
     1
  3
ACAD_XREC_ROUNDTRIP
360
285
  0
DICTIONARY
  5
278
330
34
100
AcDbDictionary
280
     1
281
     1
  3
ACAD_XREC_ROUNDTRIP
360
279
  0
DICTIONARY
  5
27A
330
35
100
AcDbDictionary
280
     1
281
     1
  3
ACAD_XREC_ROUNDTRIP
360
27B
  0
DICTIONARY
  5
282
330
39
100
AcDbDictionary
280
     1
281
     1
  3
ACAD_XREC_ROUNDTRIP
360
283
  0
DICTIONARY
  5
266
330
2B
100
AcDbDictionary
280
     1
281
     1
  3
ACAD_XREC_ROUNDTRIP
360
267
  0
DICTIONARY
  5
268
330
2C
100
AcDbDictionary
280
     1
281
     1
  3
ACAD_XREC_ROUNDTRIP
360
269
  0
DICTIONARY
  5
26A
330
2D
100
AcDbDictionary
280
     1
281
     1
  3
ACAD_XREC_ROUNDTRIP
360
26B
  0
DICTIONARY
  5
26C
330
2E
100
AcDbDictionary
280
     1
281
     1
  3
ACAD_XREC_ROUNDTRIP
360
26D
  0
DICTIONARY
  5
280
330
38
100
AcDbDictionary
280
     1
281
     1
  3
ACAD_XREC_ROUNDTRIP
360
281
  0
DICTIONARY
  5
276
330
33
100
AcDbDictionary
280
     1
281
     1
  3
ACAD_XREC_ROUNDTRIP
360
277
  0
DICTIONARY
  5
27E
330
37
100
AcDbDictionary
280
     1
281
     1
  3
ACAD_XREC_ROUNDTRIP
360
27F
  0
XRECORD
  5
289
102
{ACAD_REACTORS
330
288
102
}
330
288
100
AcDbXrecord
280
     1
102
MATERIAL
148
0.0
149
0.0
149
0.0
 93
        0
 94
      127
282
     0
 72
     1
 77
     1
171
     1
175
     1
179
     1
273
     0
  0
XRECORD
  5
287
102
{ACAD_REACTORS
330
286
102
}
330
286
100
AcDbXrecord
280
     1
102
MATERIAL
148
0.0
149
0.0
149
0.0
 93
        0
 94
      127
282
     0
 72
     1
 77
     1
171
     1
175
     1
179
     1
273
     0
  0
XRECORD
  5
28B
102
{ACAD_REACTORS
330
28A
102
}
330
28A
100
AcDbXrecord
280
     1
102
MATERIAL
148
0.0
149
0.0
149
0.0
 93
        0
 94
      127
282
     0
 72
     1
 77
     1
171
     1
175
     1
179
     1
273
     0
  0
XRECORD
  5
26F
102
{ACAD_REACTORS
330
26E
102
}
330
26E
100
AcDbXrecord
280
     1
102
RTVSPropertyOp0
 70
     1
102
RTVSPropertyOp1
 70
     1
102
RTVSPropertyOp2
 70
     1
102
RTVSPropertyOp3
 70
     1
102
RTVSPropertyOp4
 70
     1
102
RTVSPropertyOp5
 70
     1
102
RTVSPropertyOp6
 70
     1
102
RTVSPropertyOp7
 70
     1
102
RTVSPropertyOp8
 70
     1
102
RTVSPropertyOp9
 70
     1
102
RTVSPropertyOp10
 70
     1
102
RTVSPropertyOp11
 70
     1
102
RTVSPropertyOp12
 70
     1
102
RTVSPropertyOp13
 70
     1
102
RTVSPropertyOp14
 70
     1
102
RTVSPropertyOp15
 70
     1
102
RTVSPropertyOp16
 70
     1
102
RTVSPropertyOp17
 70
     1
102
RTVSPropertyOp18
 70
     1
102
RTVSPropertyOp19
 70
     1
102
RTVSPropertyOp20
 70
     1
102
RTVSPropertyOp21
 70
     1
102
RTVSPropertyOp22
 70
     1
102
RTVSPropertyOp23
 70
     1
102
RTVSPropertyOp24
 70
     1
102
RTVSPropertyOp25
 70
     1
102
RTVSPropertyOp26
 70
     1
102
RTVSPropertyOp27
 70
     1
102
RTVSPropertyOp28
 70
     1
102
RTVSPropertyOp29
 70
     1
102
RTVSPropertyOp30
 70
     1
102
RTVSPropertyOp31
 70
     1
102
RTVSPropertyOp32
 70
     1
  0
XRECORD
  5
273
102
{ACAD_REACTORS
330
272
102
}
330
272
100
AcDbXrecord
280
     1
102
RTVSPropertyOp0
 70
     1
102
RTVSPropertyOp1
 70
     1
102
RTVSPropertyOp2
 70
     1
102
RTVSPropertyOp3
 70
     1
102
RTVSPropertyOp4
 70
     1
102
RTVSPropertyOp5
 70
     1
102
RTVSPropertyOp6
 70
     1
102
RTVSPropertyOp7
 70
     1
102
RTVSPropertyOp8
 70
     1
102
RTVSPropertyOp9
 70
     1
102
RTVSPropertyOp10
 70
     1
102
RTVSPropertyOp11
 70
     1
102
RTVSPropertyOp12
 70
     1
102
RTVSPropertyOp13
 70
     1
102
RTVSPropertyOp14
 70
     1
102
RTVSPropertyOp15
 70
     1
102
RTVSPropertyOp16
 70
     1
102
RTVSPropertyOp17
 70
     1
102
RTVSPropertyOp18
 70
     1
102
RTVSPropertyOp19
 70
     1
102
RTVSPropertyOp20
 70
     1
102
RTVSPropertyOp21
 70
     1
102
RTVSPropertyOp22
 70
     1
102
RTVSPropertyOp23
 70
     1
102
RTVSPropertyOp24
 70
     1
102
RTVSPropertyOp25
 70
     1
102
RTVSPropertyOp26
 70
     1
102
RTVSPropertyOp27
 70
     1
102
RTVSPropertyOp28
 70
     1
102
RTVSPropertyOp29
 70
     1
102
RTVSPropertyOp30
 70
     1
102
RTVSPropertyOp31
 70
     1
102
RTVSPropertyOp32
 70
     1
  0
XRECORD
  5
271
102
{ACAD_REACTORS
330
270
102
}
330
270
100
AcDbXrecord
280
     1
102
RTVSPropertyOp0
 70
     1
102
RTVSPropertyOp1
 70
     1
102
RTVSPropertyOp2
 70
     1
102
RTVSPropertyOp3
 70
     1
102
RTVSPropertyOp4
 70
     1
102
RTVSPropertyOp5
 70
     1
102
RTVSPropertyOp6
 70
     1
102
RTVSPropertyOp7
 70
     1
102
RTVSPropertyOp8
 70
     1
102
RTVSPropertyOp9
 70
     1
102
RTVSPropertyOp10
 70
     1
102
RTVSPropertyOp11
 70
     1
102
RTVSPropertyOp12
 70
     1
102
RTVSPropertyOp13
 70
     1
102
RTVSPropertyOp14
 70
     1
102
RTVSPropertyOp15
 70
     1
102
RTVSPropertyOp16
 70
     1
102
RTVSPropertyOp17
 70
     1
102
RTVSPropertyOp18
 70
     1
102
RTVSPropertyOp19
 70
     1
102
RTVSPropertyOp20
 70
     1
102
RTVSPropertyOp21
 70
     1
102
RTVSPropertyOp22
 70
     1
102
RTVSPropertyOp23
 70
     1
102
RTVSPropertyOp24
 70
     1
102
RTVSPropertyOp25
 70
     1
102
RTVSPropertyOp26
 70
     1
102
RTVSPropertyOp27
 70
     1
102
RTVSPropertyOp28
 70
     1
102
RTVSPropertyOp29
 70
     1
102
RTVSPropertyOp30
 70
     1
102
RTVSPropertyOp31
 70
     1
102
RTVSPropertyOp32
 70
     1
  0
XRECORD
  5
275
102
{ACAD_REACTORS
330
274
102
}
330
274
100
AcDbXrecord
280
     1
102
RTVSPropertyOp0
 70
     1
102
RTVSPropertyOp1
 70
     1
102
RTVSPropertyOp2
 70
     1
102
RTVSPropertyOp3
 70
     1
102
RTVSPropertyOp4
 70
     1
102
RTVSPropertyOp5
 70
     1
102
RTVSPropertyOp6
 70
     1
102
RTVSPropertyOp7
 70
     1
102
RTVSPropertyOp8
 70
     1
102
RTVSPropertyOp9
 70
     1
102
RTVSPropertyOp10
 70
     1
102
RTVSPropertyOp11
 70
     1
102
RTVSPropertyOp12
 70
     1
102
RTVSPropertyOp13
 70
     1
102
RTVSPropertyOp14
 70
     1
102
RTVSPropertyOp15
 70
     1
102
RTVSPropertyOp16
 70
     1
102
RTVSPropertyOp17
 70
     1
102
RTVSPropertyOp18
 70
     1
102
RTVSPropertyOp19
 70
     1
102
RTVSPropertyOp20
 70
     1
102
RTVSPropertyOp21
 70
     1
102
RTVSPropertyOp22
 70
     1
102
RTVSPropertyOp23
 70
     1
102
RTVSPropertyOp24
 70
     1
102
RTVSPropertyOp25
 70
     1
102
RTVSPropertyOp26
 70
     1
102
RTVSPropertyOp27
 70
     1
102
RTVSPropertyOp28
 70
     1
102
RTVSPropertyOp29
 70
     1
102
RTVSPropertyOp30
 70
     1
102
RTVSPropertyOp31
 70
     1
102
RTVSPropertyOp32
 70
     1
  0
XRECORD
  5
27D
102
{ACAD_REACTORS
330
27C
102
}
330
27C
100
AcDbXrecord
280
     1
102
RTVSPropertyOp0
 70
     1
102
RTVSPropertyOp1
 70
     1
102
RTVSPropertyOp2
 70
     1
102
RTVSPropertyOp3
 70
     1
102
RTVSPropertyOp4
 70
     1
102
RTVSPropertyOp5
 70
     1
102
RTVSPropertyOp6
 70
     1
102
RTVSPropertyOp7
 70
     1
102
RTVSPropertyOp8
 70
     1
102
RTVSPropertyOp9
 70
     1
102
RTVSPropertyOp10
 70
     1
102
RTVSPropertyOp11
 70
     1
102
RTVSPropertyOp12
 70
     1
102
RTVSPropertyOp13
 70
     1
102
RTVSPropertyOp14
 70
     1
102
RTVSPropertyOp15
 70
     1
102
RTVSPropertyOp16
 70
     1
102
RTVSPropertyOp17
 70
     1
102
RTVSPropertyOp18
 70
     1
102
RTVSPropertyOp19
 70
     1
102
RTVSPropertyOp20
 70
     1
102
RTVSPropertyOp21
 70
     1
102
RTVSPropertyOp22
 70
     1
102
RTVSPropertyOp23
 70
     1
102
RTVSPropertyOp24
 70
     1
102
RTVSPropertyOp25
 70
     1
102
RTVSPropertyOp26
 70
     1
102
RTVSPropertyOp27
 70
     1
102
RTVSPropertyOp28
 70
     1
102
RTVSPropertyOp29
 70
     1
102
RTVSPropertyOp30
 70
     1
102
RTVSPropertyOp31
 70
     1
102
RTVSPropertyOp32
 70
     1
  0
XRECORD
  5
285
102
{ACAD_REACTORS
330
284
102
}
330
284
100
AcDbXrecord
280
     1
102
RTVSPropertyOp0
 70
     1
102
RTVSPropertyOp1
 70
     1
102
RTVSPropertyOp2
 70
     1
102
RTVSPropertyOp3
 70
     1
102
RTVSPropertyOp4
 70
     1
102
RTVSPropertyOp5
 70
     1
102
RTVSPropertyOp6
 70
     1
102
RTVSPropertyOp7
 70
     1
102
RTVSPropertyOp8
 70
     1
102
RTVSPropertyOp9
 70
     1
102
RTVSPropertyOp10
 70
     1
102
RTVSPropertyOp11
 70
     1
102
RTVSPropertyOp12
 70
     1
102
RTVSPropertyOp13
 70
     1
102
RTVSPropertyOp14
 70
     1
102
RTVSPropertyOp15
 70
     1
102
RTVSPropertyOp16
 70
     1
102
RTVSPropertyOp17
 70
     1
102
RTVSPropertyOp18
 70
     1
102
RTVSPropertyOp19
 70
     1
102
RTVSPropertyOp20
 70
     1
102
RTVSPropertyOp21
 70
     1
102
RTVSPropertyOp22
 70
     1
102
RTVSPropertyOp23
 70
     1
102
RTVSPropertyOp24
 70
     1
102
RTVSPropertyOp25
 70
     1
102
RTVSPropertyOp26
 70
     1
102
RTVSPropertyOp27
 70
     1
102
RTVSPropertyOp28
 70
     1
102
RTVSPropertyOp29
 70
     1
102
RTVSPropertyOp30
 70
     1
102
RTVSPropertyOp31
 70
     1
102
RTVSPropertyOp32
 70
     1
  0
XRECORD
  5
279
102
{ACAD_REACTORS
330
278
102
}
330
278
100
AcDbXrecord
280
     1
102
RTVSPropertyOp0
 70
     1
102
RTVSPropertyOp1
 70
     1
102
RTVSPropertyOp2
 70
     1
102
RTVSPropertyOp3
 70
     1
102
RTVSPropertyOp4
 70
     1
102
RTVSPropertyOp5
 70
     1
102
RTVSPropertyOp6
 70
     1
102
RTVSPropertyOp7
 70
     1
102
RTVSPropertyOp8
 70
     1
102
RTVSPropertyOp9
 70
     1
102
RTVSPropertyOp10
 70
     1
102
RTVSPropertyOp11
 70
     1
102
RTVSPropertyOp12
 70
     1
102
RTVSPropertyOp13
 70
     1
102
RTVSPropertyOp14
 70
     1
102
RTVSPropertyOp15
 70
     1
102
RTVSPropertyOp16
 70
     1
102
RTVSPropertyOp17
 70
     1
102
RTVSPropertyOp18
 70
     1
102
RTVSPropertyOp19
 70
     1
102
RTVSPropertyOp20
 70
     1
102
RTVSPropertyOp21
 70
     1
102
RTVSPropertyOp22
 70
     1
102
RTVSPropertyOp23
 70
     1
102
RTVSPropertyOp24
 70
     1
102
RTVSPropertyOp25
 70
     1
102
RTVSPropertyOp26
 70
     1
102
RTVSPropertyOp27
 70
     1
102
RTVSPropertyOp28
 70
     1
102
RTVSPropertyOp29
 70
     1
102
RTVSPropertyOp30
 70
     1
102
RTVSPropertyOp31
 70
     1
102
RTVSPropertyOp32
 70
     1
  0
XRECORD
  5
27B
102
{ACAD_REACTORS
330
27A
102
}
330
27A
100
AcDbXrecord
280
     1
102
RTVSPropertyOp0
 70
     1
102
RTVSPropertyOp1
 70
     1
102
RTVSPropertyOp2
 70
     1
102
RTVSPropertyOp3
 70
     1
102
RTVSPropertyOp4
 70
     1
102
RTVSPropertyOp5
 70
     1
102
RTVSPropertyOp6
 70
     1
102
RTVSPropertyOp7
 70
     1
102
RTVSPropertyOp8
 70
     1
102
RTVSPropertyOp9
 70
     1
102
RTVSPropertyOp10
 70
     1
102
RTVSPropertyOp11
 70
     1
102
RTVSPropertyOp12
 70
     1
102
RTVSPropertyOp13
 70
     1
102
RTVSPropertyOp14
 70
     1
102
RTVSPropertyOp15
 70
     1
102
RTVSPropertyOp16
 70
     1
102
RTVSPropertyOp17
 70
     1
102
RTVSPropertyOp18
 70
     1
102
RTVSPropertyOp19
 70
     1
102
RTVSPropertyOp20
 70
     1
102
RTVSPropertyOp21
 70
     1
102
RTVSPropertyOp22
 70
     1
102
RTVSPropertyOp23
 70
     1
102
RTVSPropertyOp24
 70
     1
102
RTVSPropertyOp25
 70
     1
102
RTVSPropertyOp26
 70
     1
102
RTVSPropertyOp27
 70
     1
102
RTVSPropertyOp28
 70
     1
102
RTVSPropertyOp29
 70
     1
102
RTVSPropertyOp30
 70
     1
102
RTVSPropertyOp31
 70
     1
102
RTVSPropertyOp32
 70
     1
  0
XRECORD
  5
283
102
{ACAD_REACTORS
330
282
102
}
330
282
100
AcDbXrecord
280
     1
102
RTVSPropertyOp0
 70
     1
102
RTVSPropertyOp1
 70
     1
102
RTVSPropertyOp2
 70
     1
102
RTVSPropertyOp3
 70
     1
102
RTVSPropertyOp4
 70
     1
102
RTVSPropertyOp5
 70
     1
102
RTVSPropertyOp6
 70
     1
102
RTVSPropertyOp7
 70
     1
102
RTVSPropertyOp8
 70
     1
102
RTVSPropertyOp9
 70
     1
102
RTVSPropertyOp10
 70
     1
102
RTVSPropertyOp11
 70
     1
102
RTVSPropertyOp12
 70
     1
102
RTVSPropertyOp13
 70
     1
102
RTVSPropertyOp14
 70
     1
102
RTVSPropertyOp15
 70
     1
102
RTVSPropertyOp16
 70
     1
102
RTVSPropertyOp17
 70
     1
102
RTVSPropertyOp18
 70
     1
102
RTVSPropertyOp19
 70
     1
102
RTVSPropertyOp20
 70
     1
102
RTVSPropertyOp21
 70
     1
102
RTVSPropertyOp22
 70
     1
102
RTVSPropertyOp23
 70
     1
102
RTVSPropertyOp24
 70
     1
102
RTVSPropertyOp25
 70
     1
102
RTVSPropertyOp26
 70
     1
102
RTVSPropertyOp27
 70
     1
102
RTVSPropertyOp28
 70
     1
102
RTVSPropertyOp29
 70
     1
102
RTVSPropertyOp30
 70
     1
102
RTVSPropertyOp31
 70
     1
102
RTVSPropertyOp32
 70
     1
  0
XRECORD
  5
267
102
{ACAD_REACTORS
330
266
102
}
330
266
100
AcDbXrecord
280
     1
102
RTVSPropertyOp0
 70
     1
102
RTVSPropertyOp1
 70
     1
102
RTVSPropertyOp2
 70
     1
102
RTVSPropertyOp3
 70
     1
102
RTVSPropertyOp4
 70
     1
102
RTVSPropertyOp5
 70
     1
102
RTVSPropertyOp6
 70
     1
102
RTVSPropertyOp7
 70
     1
102
RTVSPropertyOp8
 70
     1
102
RTVSPropertyOp9
 70
     1
102
RTVSPropertyOp10
 70
     1
102
RTVSPropertyOp11
 70
     1
102
RTVSPropertyOp12
 70
     1
102
RTVSPropertyOp13
 70
     1
102
RTVSPropertyOp14
 70
     1
102
RTVSPropertyOp15
 70
     1
102
RTVSPropertyOp16
 70
     1
102
RTVSPropertyOp17
 70
     1
102
RTVSPropertyOp18
 70
     1
102
RTVSPropertyOp19
 70
     1
102
RTVSPropertyOp20
 70
     1
102
RTVSPropertyOp21
 70
     1
102
RTVSPropertyOp22
 70
     1
102
RTVSPropertyOp23
 70
     1
102
RTVSPropertyOp24
 70
     1
102
RTVSPropertyOp25
 70
     1
102
RTVSPropertyOp26
 70
     1
102
RTVSPropertyOp27
 70
     1
102
RTVSPropertyOp28
 70
     1
102
RTVSPropertyOp29
 70
     1
102
RTVSPropertyOp30
 70
     1
102
RTVSPropertyOp31
 70
     1
102
RTVSPropertyOp32
 70
     1
  0
XRECORD
  5
269
102
{ACAD_REACTORS
330
268
102
}
330
268
100
AcDbXrecord
280
     1
102
RTVSPropertyOp0
 70
     1
102
RTVSPropertyOp1
 70
     1
102
RTVSPropertyOp2
 70
     1
102
RTVSPropertyOp3
 70
     1
102
RTVSPropertyOp4
 70
     1
102
RTVSPropertyOp5
 70
     1
102
RTVSPropertyOp6
 70
     1
102
RTVSPropertyOp7
 70
     1
102
RTVSPropertyOp8
 70
     1
102
RTVSPropertyOp9
 70
     1
102
RTVSPropertyOp10
 70
     1
102
RTVSPropertyOp11
 70
     1
102
RTVSPropertyOp12
 70
     1
102
RTVSPropertyOp13
 70
     1
102
RTVSPropertyOp14
 70
     1
102
RTVSPropertyOp15
 70
     1
102
RTVSPropertyOp16
 70
     1
102
RTVSPropertyOp17
 70
     1
102
RTVSPropertyOp18
 70
     1
102
RTVSPropertyOp19
 70
     1
102
RTVSPropertyOp20
 70
     1
102
RTVSPropertyOp21
 70
     1
102
RTVSPropertyOp22
 70
     1
102
RTVSPropertyOp23
 70
     1
102
RTVSPropertyOp24
 70
     1
102
RTVSPropertyOp25
 70
     1
102
RTVSPropertyOp26
 70
     1
102
RTVSPropertyOp27
 70
     1
102
RTVSPropertyOp28
 70
     1
102
RTVSPropertyOp29
 70
     1
102
RTVSPropertyOp30
 70
     1
102
RTVSPropertyOp31
 70
     1
102
RTVSPropertyOp32
 70
     1
  0
XRECORD
  5
26B
102
{ACAD_REACTORS
330
26A
102
}
330
26A
100
AcDbXrecord
280
     1
102
RTVSPropertyOp0
 70
     1
102
RTVSPropertyOp1
 70
     1
102
RTVSPropertyOp2
 70
     1
102
RTVSPropertyOp3
 70
     1
102
RTVSPropertyOp4
 70
     1
102
RTVSPropertyOp5
 70
     1
102
RTVSPropertyOp6
 70
     1
102
RTVSPropertyOp7
 70
     1
102
RTVSPropertyOp8
 70
     1
102
RTVSPropertyOp9
 70
     1
102
RTVSPropertyOp10
 70
     1
102
RTVSPropertyOp11
 70
     1
102
RTVSPropertyOp12
 70
     1
102
RTVSPropertyOp13
 70
     1
102
RTVSPropertyOp14
 70
     1
102
RTVSPropertyOp15
 70
     1
102
RTVSPropertyOp16
 70
     1
102
RTVSPropertyOp17
 70
     1
102
RTVSPropertyOp18
 70
     1
102
RTVSPropertyOp19
 70
     1
102
RTVSPropertyOp20
 70
     1
102
RTVSPropertyOp21
 70
     1
102
RTVSPropertyOp22
 70
     1
102
RTVSPropertyOp23
 70
     1
102
RTVSPropertyOp24
 70
     1
102
RTVSPropertyOp25
 70
     1
102
RTVSPropertyOp26
 70
     1
102
RTVSPropertyOp27
 70
     1
102
RTVSPropertyOp28
 70
     1
102
RTVSPropertyOp29
 70
     1
102
RTVSPropertyOp30
 70
     1
102
RTVSPropertyOp31
 70
     1
102
RTVSPropertyOp32
 70
     1
  0
XRECORD
  5
26D
102
{ACAD_REACTORS
330
26C
102
}
330
26C
100
AcDbXrecord
280
     1
102
RTVSPropertyOp0
 70
     1
102
RTVSPropertyOp1
 70
     1
102
RTVSPropertyOp2
 70
     1
102
RTVSPropertyOp3
 70
     1
102
RTVSPropertyOp4
 70
     1
102
RTVSPropertyOp5
 70
     1
102
RTVSPropertyOp6
 70
     1
102
RTVSPropertyOp7
 70
     1
102
RTVSPropertyOp8
 70
     1
102
RTVSPropertyOp9
 70
     1
102
RTVSPropertyOp10
 70
     1
102
RTVSPropertyOp11
 70
     1
102
RTVSPropertyOp12
 70
     1
102
RTVSPropertyOp13
 70
     1
102
RTVSPropertyOp14
 70
     1
102
RTVSPropertyOp15
 70
     1
102
RTVSPropertyOp16
 70
     1
102
RTVSPropertyOp17
 70
     1
102
RTVSPropertyOp18
 70
     1
102
RTVSPropertyOp19
 70
     1
102
RTVSPropertyOp20
 70
     1
102
RTVSPropertyOp21
 70
     1
102
RTVSPropertyOp22
 70
     1
102
RTVSPropertyOp23
 70
     1
102
RTVSPropertyOp24
 70
     1
102
RTVSPropertyOp25
 70
     1
102
RTVSPropertyOp26
 70
     1
102
RTVSPropertyOp27
 70
     1
102
RTVSPropertyOp28
 70
     1
102
RTVSPropertyOp29
 70
     1
102
RTVSPropertyOp30
 70
     1
102
RTVSPropertyOp31
 70
     1
102
RTVSPropertyOp32
 70
     1
  0
XRECORD
  5
281
102
{ACAD_REACTORS
330
280
102
}
330
280
100
AcDbXrecord
280
     1
102
RTVSPropertyOp0
 70
     1
102
RTVSPropertyOp1
 70
     1
102
RTVSPropertyOp2
 70
     1
102
RTVSPropertyOp3
 70
     1
102
RTVSPropertyOp4
 70
     1
102
RTVSPropertyOp5
 70
     1
102
RTVSPropertyOp6
 70
     1
102
RTVSPropertyOp7
 70
     1
102
RTVSPropertyOp8
 70
     1
102
RTVSPropertyOp9
 70
     1
102
RTVSPropertyOp10
 70
     1
102
RTVSPropertyOp11
 70
     1
102
RTVSPropertyOp12
 70
     1
102
RTVSPropertyOp13
 70
     1
102
RTVSPropertyOp14
 70
     1
102
RTVSPropertyOp15
 70
     1
102
RTVSPropertyOp16
 70
     1
102
RTVSPropertyOp17
 70
     1
102
RTVSPropertyOp18
 70
     1
102
RTVSPropertyOp19
 70
     1
102
RTVSPropertyOp20
 70
     1
102
RTVSPropertyOp21
 70
     1
102
RTVSPropertyOp22
 70
     1
102
RTVSPropertyOp23
 70
     1
102
RTVSPropertyOp24
 70
     1
102
RTVSPropertyOp25
 70
     1
102
RTVSPropertyOp26
 70
     1
102
RTVSPropertyOp27
 70
     1
102
RTVSPropertyOp28
 70
     1
102
RTVSPropertyOp29
 70
     1
102
RTVSPropertyOp30
 70
     1
102
RTVSPropertyOp31
 70
     1
102
RTVSPropertyOp32
 70
     1
  0
XRECORD
  5
277
102
{ACAD_REACTORS
330
276
102
}
330
276
100
AcDbXrecord
280
     1
102
RTVSPropertyOp0
 70
     1
102
RTVSPropertyOp1
 70
     1
102
RTVSPropertyOp2
 70
     1
102
RTVSPropertyOp3
 70
     1
102
RTVSPropertyOp4
 70
     1
102
RTVSPropertyOp5
 70
     1
102
RTVSPropertyOp6
 70
     1
102
RTVSPropertyOp7
 70
     1
102
RTVSPropertyOp8
 70
     1
102
RTVSPropertyOp9
 70
     1
102
RTVSPropertyOp10
 70
     1
102
RTVSPropertyOp11
 70
     1
102
RTVSPropertyOp12
 70
     1
102
RTVSPropertyOp13
 70
     1
102
RTVSPropertyOp14
 70
     1
102
RTVSPropertyOp15
 70
     1
102
RTVSPropertyOp16
 70
     1
102
RTVSPropertyOp17
 70
     1
102
RTVSPropertyOp18
 70
     1
102
RTVSPropertyOp19
 70
     1
102
RTVSPropertyOp20
 70
     1
102
RTVSPropertyOp21
 70
     1
102
RTVSPropertyOp22
 70
     1
102
RTVSPropertyOp23
 70
     1
102
RTVSPropertyOp24
 70
     1
102
RTVSPropertyOp25
 70
     1
102
RTVSPropertyOp26
 70
     1
102
RTVSPropertyOp27
 70
     1
102
RTVSPropertyOp28
 70
     1
102
RTVSPropertyOp29
 70
     1
102
RTVSPropertyOp30
 70
     1
102
RTVSPropertyOp31
 70
     1
102
RTVSPropertyOp32
 70
     1
  0
XRECORD
  5
27F
102
{ACAD_REACTORS
330
27E
102
}
330
27E
100
AcDbXrecord
280
     1
102
RTVSPropertyOp0
 70
     1
102
RTVSPropertyOp1
 70
     1
102
RTVSPropertyOp2
 70
     1
102
RTVSPropertyOp3
 70
     1
102
RTVSPropertyOp4
 70
     1
102
RTVSPropertyOp5
 70
     1
102
RTVSPropertyOp6
 70
     1
102
RTVSPropertyOp7
 70
     1
102
RTVSPropertyOp8
 70
     1
102
RTVSPropertyOp9
 70
     1
102
RTVSPropertyOp10
 70
     1
102
RTVSPropertyOp11
 70
     1
102
RTVSPropertyOp12
 70
     1
102
RTVSPropertyOp13
 70
     1
102
RTVSPropertyOp14
 70
     1
102
RTVSPropertyOp15
 70
     1
102
RTVSPropertyOp16
 70
     1
102
RTVSPropertyOp17
 70
     1
102
RTVSPropertyOp18
 70
     1
102
RTVSPropertyOp19
 70
     1
102
RTVSPropertyOp20
 70
     1
102
RTVSPropertyOp21
 70
     1
102
RTVSPropertyOp22
 70
     1
102
RTVSPropertyOp23
 70
     1
102
RTVSPropertyOp24
 70
     1
102
RTVSPropertyOp25
 70
     1
102
RTVSPropertyOp26
 70
     1
102
RTVSPropertyOp27
 70
     1
102
RTVSPropertyOp28
 70
     1
102
RTVSPropertyOp29
 70
     1
102
RTVSPropertyOp30
 70
     1
102
RTVSPropertyOp31
 70
     1
102
RTVSPropertyOp32
 70
     1
  0
ENDSEC
  0
EOF
